#TITLE:A New Breed of Savior;
#SUBTITLE:by young editer;
#ARTIST:Inferi;
#TITLETRANSLIT:;
#SUBTITLETRANSLIT:;
#ARTISTTRANSLIT:;
#GENRE:;
#CREDIT:;
#BANNER:Dibujo-bn.bmp;
#BACKGROUND:cover-bg.jpg;
#LYRICSPATH:;
#CDTITLE:Nepex-Chart.bmp;
#MUSIC:04 A New Breed of Savior.mp3;
#OFFSET:1.218;
#SAMPLESTART:32.000;
#SAMPLELENGTH:12.000;
#SELECTABLE:YES;
#BPMS:0.000=90.050,28.000=180.400,64.000=179.980,683.000=180.200,715.000=90.100,731.000=179.980,859.000=89.990,866.000=92.100,866.500=94.000,867.000=179.980,868.000=179.980,892.000=178.800,896.000=179.980;
#STOPS:;
#BGCHANGES:;
#KEYSOUNDS:;

//---------------dance-single - Blank----------------
#NOTES:
     dance-single:
     Blank:
     Hard:
     13:
     1.000,0.855,1.000,0.522,1.000:


0000
0000
0000
0000
0010
0100
0001
0010
,
0001
0000
0000
0000
0000
0000
1000
0000
0000
0000
0000
0000
0010
0000
0000
0000
0000
0000
0100
0000
0000
0000
0000
0000
0001
1000
0000
0000
0000
0000
0010
0000
0000
0000
0000
0000
1000
0000
0000
0000
0000
0000
0100
0000
0000
0000
0000
0000
,
0010
0000
0000
0000
0001
1000
0010
0100
0001
0000
0000
0000
0100
0000
0000
0000
1000
0000
0000
0000
0100
0000
0000
0000
0010
0000
0000
0000
1000
0000
0000
0000
,
0010
0100
0000
0000
0000
0000
0001
0000
0000
0000
0000
0000
0100
0000
0000
0000
0000
0000
0010
0000
0000
0000
0000
0000
1000
0000
0000
0010
0000
0000
0100
0000
0000
0001
0000
0000
1000
0000
0000
0100
0000
0000
0010
0000
0000
1000
0000
0000
,
0010
0001
1000
0010
0100
0001
1000
0100
,
0010
0001
0000
0000
0000
0000
1000
0000
0000
0000
0000
0000
0010
0000
0000
0000
0000
0000
0100
0000
0000
0000
0000
0000
0001
0000
0000
0000
0000
0000
1000
0000
0001
0000
0100
0000
0010
0000
0000
0000
0000
0000
0100
0000
0000
0000
0000
0000
,
0010
0000
0000
0000
0000
0000
1000
0000
0000
0000
0000
0000
0010
0000
0000
0000
0000
0000
0001
0000
0000
0000
0000
0000
0100
1000
0000
0000
0000
0000
0010
0000
0000
0000
0000
0000
1000
0000
0000
0000
0000
0000
0100
0000
0000
0000
0000
0000
,
0022
0000
0000
0033
0220
0000
0000
0330
2200
0000
0000
3300
0022
0000
0000
0033
,
0202
1000
0010
1000
,
0020
0000
0303
0000
2002
0000
0000
3003
2200
0000
3300
0000
2032
0000
0000
3003
,
0202
0000
1000
0000
0010
0000
1000
0303
,
2022
0000
0000
0000
0000
0000
0000
0000
0000
0000
0000
0000
0030
0000
0000
0000
0000
0000
0010
0000
0100
0000
0010
0000
0110
0000
0000
0000
0000
0000
0000
0000
0000
0000
0000
0000
0010
0000
0000
0000
0000
0000
0000
0000
0000
3003
0000
0000
,
2200
0010
0001
0010
,
0002
0000
3300
0000
0220
0000
0003
0330
0100
0010
1000
0100
1000
0010
0100
0010
,
2200
0000
0000
0000
0010
0000
0000
0000
0002
0003
0000
0000
0010
0000
3300
0000
,
2002
0000
0000
0000
0000
0000
0000
0000
0000
0000
0000
0000
0000
0000
0000
0000
0000
0000
0100
0000
0010
3003
0100
0000
1020
0000
0000
0000
0000
0000
0000
0000
0000
0000
0000
0000
1000
0000
0000
0000
0000
0000
0030
0000
0000
0000
0000
0000
,
0011
1100
1001
1010
0110
1100
0011
0101
1010
1100
0101
0110
,
1100
0101
0011
1100
1001
1100
0110
0011
1010
1100
0011
1001
,
0110
1100
1001
0101
0110
1010
0101
0011
1001
0110
1010
0110
,
0101
0000
1100
0000
0110
0000
0101
0000
1000
0000
0010
0000
0001
0100
0010
1000
0100
0010
0001
1000
0001
1000
0001
1000
,
0202
0000
0000
0303
0000
0000
1001
0000
1100
0000
0110
0000
1001
0000
0101
0000
0011
0000
1010
0000
0110
0000
1100
0000
,
0011
0110
0101
1010
0110
1001
0101
0011
1010
1100
0101
0011
,
1001
1100
0110
1010
0101
0011
1001
1100
0110
1001
0110
1010
,
1001
0000
0010
0100
0010
0000
1000
0000
0001
0000
0100
0000
0010
0000
0001
0000
0100
0000
0010
0000
1000
0000
0100
0000
,
0022
0000
0000
0033
0000
0000
1001
0000
0011
0000
1100
0000
0110
0000
1001
0000
1100
0000
0110
0000
0101
0000
0011
0000
,
1010
0000
1100
0000
1010
0000
0101
0000
1001
0000
1010
0000
0001
1000
0001
1000
0000
0000
0010
0100
0010
0100
0000
0000
,
2002
0000
0000
0000
0000
0000
0000
0000
0000
3003
0000
0000
0110
0000
0000
0000
1100
0000
0000
0000
0101
0000
0000
0000
1010
0000
0000
0000
0110
0000
0000
0000
1100
0000
0000
0000
0101
0000
0000
0000
0011
0000
0000
0000
1001
0000
0000
0000
,
1100
1001
0110
0101
0011
1010
1100
1001
0110
1010
0110
1100
,
0101
0011
1001
1100
0110
1001
0101
0011
1010
0110
1001
1100
,
0110
0000
1100
0000
0101
0000
0011
0000
1010
0000
0000
0000
0001
1000
0010
0100
0001
1000
0010
0100
0001
1000
0010
0100
,
2002
0000
3003
1010
0110
1001
0101
0011
1001
1100
0110
1010
,
0101
0110
1010
0101
0011
1001
0100
0010
1000
0001
0100
0010
,
0001
0010
1000
0110
0101
0011
1010
0110
1001
0101
0011
1010
,
1100
1001
0101
1010
0110
0101
0011
1001
1100
1010
0110
0101
,
0011
1001
0110
1010
1001
0101
0011
1001
0110
1100
0101
1001
,
0011
0000
0100
1000
0100
0000
0010
0000
0001
1000
0100
0000
0010
0000
1000
0000
0001
0000
0100
0000
0001
0000
0010
0000
,
2200
0000
0000
3300
0000
0000
1001
0000
0011
0000
0110
0000
1001
0000
0101
0000
0011
0000
1100
0000
1001
0000
0110
0000
,
1010
0101
1100
0101
0011
1001
1100
1010
0110
1001
0101
0011
,
1001
1100
1010
0110
1010
0101
0011
0110
1010
0110
0101
0011
,
1001
0000
0010
0100
0010
0000
1000
0000
0001
0000
0100
0000
0010
0000
0001
0000
0010
0000
1000
0000
0100
0000
0010
0000
,
1101
0001
0001
0100
0010
1000
0100
0010
1000
0010
0001
0100
,
0010
0001
0010
1000
0100
0010
1101
0001
0100
1010
0000
0100
,
1100
0000
0000
0111
0010
0010
1100
0000
0001
0111
0000
1000
,
0111
0110
1100
0101
1000
0100
0010
0001
0100
1001
0101
1010
,
0110
0001
1000
0100
0010
0001
1110
1000
0010
0100
0100
0010
,
0220
0000
0000
0000
0000
0000
0000
0000
0000
0330
0000
0000
2202
0000
0000
0000
0000
0000
3303
0000
0000
0000
0000
0000
0001
0000
0010
0000
0001
0000
0010
0000
0001
0000
0010
0000
0100
0000
1000
0000
0100
0000
1000
0000
0100
0000
1000
0000
,
0010
0100
0010
0100
0010
0100
0001
1000
0001
1000
0001
1000
0110
0000
1100
0000
0101
0000
1001
0000
0000
0000
0000
0000
,
1001
1100
0101
0110
1100
0101
0011
1010
1001
1100
1010
0110
,
0101
0011
1001
1100
0110
1010
0101
0011
1001
1100
1001
0101
,
0011
1010
0110
1010
0101
0110
1010
0101
0011
1001
1100
1010
,
0110
1010
0101
0011
1001
1100
1010
0101
0011
1010
0110
0101
,
0011
1100
1010
1100
0101
0011
1001
1100
1010
0101
0011
1010
,
0110
0000
1100
0000
0101
0000
0010
1000
0001
0010
0001
1000
0110
0000
1100
0000
1001
0000
0000
0000
0110
0000
0000
0000
,
0001
0010
0100
1000
0010
0100
1000
0100
0011
0000
0000
0000
1001
0000
0000
0000
,
1000
0100
0010
0001
0010
0010
1100
0000
0000
0001
0010
0100
,
1000
0000
0100
0000
0100
0000
1010
0000
0000
0000
0001
0100
0011
0000
0110
0000
1000
0000
0100
0000
0000
0000
0000
0000
,
0010
0010
1000
1000
0010
0010
0001
0001
0110
0000
0000
0000
0001
0001
0100
0100
,
0010
0010
1000
1000
0101
0000
0000
0000
1000
1000
0010
0010
0100
0100
0001
0001
,
1010
0000
0001
0100
0001
0000
1000
0000
0010
0100
0010
0000
1000
0000
0001
0000
0100
0000
0010
0000
1000
0000
1000
0000
,
0001
0100
0100
0010
0001
0001
0010
0100
1000
0100
0010
0010
,
1000
0001
0001
0100
0010
0010
1000
0100
0010
0001
1000
1000
,
0010
0100
0100
0001
1000
1000
0010
0100
1000
0011
0000
0000
,
0000
0000
0000
0000
0000
0000
0001
0000
0000
0010
0000
0000
0100
0000
0000
1000
0000
0000
0010
0000
0000
0100
0000
0000
0011
0000
0000
0000
0000
0000
0000
0000
1001
0000
0000
0000
0100
0000
0000
0000
0010
0000
0000
0000
0010
0000
0000
0000
,
1000
0001
0001
0100
0010
0010
0100
1000
1000
0100
0001
0001
,
0010
0100
0100
0020
0000
0030
1001
0000
0110
0001
0100
0100
,
0010
0000
0000
0000
1000
0000
0000
0000
1000
0000
0000
0000
0001
0000
0000
0000
0010
0000
0000
0000
0010
0000
0000
0000
0100
0000
0000
0000
1000
0000
0000
0000
1000
0000
0000
0000
0001
0000
0000
0100
0000
0000
0010
0000
0000
1000
0000
0000
,
0001
0000
0100
0000
0010
0000
1000
0000
0100
0010
0001
0000
1000
0000
0010
0000
1000
0000
0100
0000
0001
0000
0001
0000
,
1000
0010
0010
0100
1000
1000
0100
0010
0001
0010
0100
0100
,
0001
1000
1000
0010
0100
0100
0001
0010
0100
1000
0001
0001
,
0100
0010
0010
1000
0001
0001
0100
0010
0001
2200
3300
0000
,
0000
0000
0000
0000
0000
0000
1000
0000
0000
0100
0000
0000
0010
0000
0000
0001
0000
0000
0100
0000
0000
0010
0000
0000
1100
0000
0000
0000
0000
0000
0000
0000
1001
0000
0000
0000
0010
0000
0000
0000
0100
0000
0000
0000
0100
0000
0000
0000
,
0001
1000
1000
0010
0100
0100
0010
0001
0001
0010
1000
1000
,
0100
0010
0010
0200
0000
0300
1001
0000
0110
0001
0100
0100
,
0010
0000
1000
0000
1000
0000
0001
0000
0010
0000
0010
0000
0100
0000
1000
0000
1000
0000
0010
0100
0010
0100
0010
1000
,
0100
0010
0001
0100
0010
1000
0001
0010
0001
0010
0001
0010
1100
0000
1010
0000
0110
0000
1001
0000
0000
0000
0000
0000
,
1010
0101
1010
1001
1100
0110
1010
0101
0011
1100
0110
0101
,
0011
1001
1100
1010
0101
0011
1001
0110
1010
0101
0011
1001
,
1100
0110
1010
0101
0011
1100
0110
0101
0011
1100
1010
0101
,
0011
1100
1010
0101
1001
1010
0110
1001
0101
0011
1001
1100
,
0110
1001
0110
1010
0110
0101
0011
1001
1100
1010
0110
1001
,
0101
0000
0011
0000
1001
0000
0010
1000
0010
0100
0001
0010
1001
0000
0101
0000
1010
0000
0000
0000
0110
0000
0000
0000
,
0001
0010
0100
1000
0010
0100
1000
0100
0011
0000
0000
0000
1001
0000
0000
0000
,
1000
0100
0010
0001
0010
0010
1100
0000
0000
0001
0010
0100
,
1000
0000
0100
0000
0100
0000
1010
0000
0000
0000
0001
0100
0011
0000
0110
0000
1000
0000
0100
0000
0000
0000
0000
0000
,
0010
0010
1000
1000
0010
0010
0001
0001
0110
0000
0000
0000
0001
0001
0100
0100
,
0010
0010
1000
1000
0101
0000
0000
0000
1000
1000
0010
0010
0100
0100
0001
0001
,
1010
0000
0001
0100
0001
0000
1000
0000
0010
0100
0010
0000
1000
0000
0001
0000
0100
0000
0010
0000
1000
0000
1000
0000
,
0001
0100
0100
0010
0001
0001
0010
0100
1000
0100
0010
0010
,
1000
0001
0001
0100
0010
0010
1000
0100
0010
0001
1000
1000
,
0010
0100
0100
0001
1000
1000
0010
0100
1000
0011
0000
0000
,
0000
0000
0001
0000
0100
0000
0010
0000
1000
0001
0100
0000
0010
0000
1000
0000
0001
0000
0100
0000
0010
0000
0010
0000
,
1000
0001
0001
0100
0010
0010
0100
1000
1000
0100
0001
0001
,
0010
0100
0100
0020
0000
0030
1001
0000
0110
0001
0100
0100
,
0010
0000
1000
0000
1000
0000
0001
0000
0010
0000
0010
0000
0100
0000
1000
0000
1000
0000
0001
0100
0001
0000
0010
0000
,
0100
1000
0010
0100
0010
1000
0010
0001
0010
1000
0100
0100
,
0010
0001
0001
1000
0010
0010
1000
0001
0100
0001
1000
1000
,
0100
0010
0010
0001
1000
1000
0100
0010
0001
0010
0100
0100
,
1000
0001
0001
0010
0100
0100
1000
0001
0100
2020
3030
0000
,
0000
0000
0000
0000
0000
0000
0010
0000
0000
1000
0000
0000
0001
0000
0000
0100
0000
0000
0010
0000
0000
0001
0000
0000
1010
0000
0000
0000
0000
0000
0000
0000
0110
0000
0000
0000
0001
0000
0000
0000
1000
0000
0000
0000
1000
0000
0000
0000
,
0100
0010
0010
0001
1000
1000
0001
0100
0100
0001
0010
0010
,
1000
0000
0001
0000
0001
0000
0200
0000
0000
0300
0000
0000
0110
0000
0000
0000
1001
0000
0010
0000
0001
0000
0001
0000
,
1000
0100
0100
0010
1000
1000
0010
0001
0001
0100
0000
0000
,
0010
1000
0100
0010
0100
0010
0001
0100
0010
1000
0010
0100
1001
0000
0000
0000
,
0110
1100
0110
0011
1010
1001
0101
1010
0110
0101
1010
1100
,
0011
0000
0000
0000
0101
0000
0000
0000
1001
0000
0000
0000
0010
0000
1000
0000
0010
0000
1000
0000
0000
0000
0000
0000
0100
0000
0001
0000
0100
0000
0001
0000
0000
0000
0000
0000
0220
0000
0000
0000
0000
0000
0000
0000
0000
0330
0000
0000
,
1100
0110
1001
0101
0011
1010
0110
1001
0101
0011
1100
1010
,
0110
1001
0101
0011
1001
1100
1010
0101
0110
1100
0011
0101
,
1010
0110
1001
0101
0011
1100
1001
0110
1100
0110
0101
0011
,
1010
0000
1100
0000
0110
0000
0001
0010
1000
0100
0001
0010
1000
0100
0001
0010
1000
0100
0022
0000
0000
0033
0000
0000
,
1100
1010
0101
0011
1010
0110
1001
0101
0011
1010
0110
1001
,
1100
0011
0101
1100
0001
0100
0010
1000
0100
0010
0001
0100
,
1010
0101
0011
1100
1010
0101
0011
1010
1001
1010
0110
0101
,
0011
1001
1100
1010
0110
0101
0011
1001
1100
0110
1010
0101
,
0011
0000
1001
0000
1100
0000
0110
0000
1010
0000
0101
0000
0011
0000
1001
0000
0110
0000
1001
0000
0010
0100
0010
0000
,
1000
0000
0100
0010
0100
0000
0010
0000
0001
0000
0100
0000
0001
0000
1000
0000
0010
0000
2200
0000
0000
3300
0000
0000
,
0011
0110
0101
0011
1100
1010
1100
0110
0101
1010
0110
1001
,
0101
0011
1100
1010
0110
1001
0101
0011
0110
1001
1100
0110
,
1010
0000
0101
0000
0011
0000
1001
0000
1100
0000
0110
0000
1001
0000
0101
0000
0110
0000
1001
0000
0100
1000
0010
0000
,
1000
0001
0010
0100
0010
0001
0100
1000
0100
0010
0010
0010
,
0010
0000
0010
0000
0010
0000
0200
0000
0000
0300
0000
0000
1000
0000
1000
0000
1000
0000
1000
0000
1000
0000
1000
0000
,
0002
0000
0000
0000
0000
0000
0003
0000
0000
0000
0000
0000
0010
0000
0000
0100
0000
0000
0001
0000
0000
0010
0000
0000
0100
0000
0000
0010
0000
0000
0001
0000
0000
1000
0000
0000
0010
0000
0000
0000
0010
0000
0000
0000
0010
0000
0000
0000
,
0010
0000
0010
0000
0010
0000
2000
0000
0000
3000
0000
0000
0001
0000
0001
0000
0001
0000
0001
0000
0001
0000
0001
0000
,
0020
0000
0000
0030
0000
0000
1000
0100
0010
0000
0001
0000
0100
0000
0010
0000
1000
0000
0100
0000
0100
0000
0100
0000
,
0100
0000
0100
0000
0100
0000
0002
0000
0000
0003
0000
0000
1000
0000
1000
0000
1000
0000
1000
0000
1000
0000
1000
0000
,
0200
0000
0000
0000
0000
0000
0300
0000
0000
0000
0000
0000
0001
0000
0100
0000
0010
0000
0000
0000
0001
0000
1000
0000
0101
0000
0000
0000
0110
0000
0000
0000
1001
0000
0000
0000
0001
0000
0000
0100
0000
0000
0010
0000
0000
1000
0000
0000
,
0100
0010
0100
0010
0001
0100
0010
1000
0010
0100
0001
0100
0010
0001
0010
1000
,
0010
0100
0001
1000
0001
0010
1000
0010
0001
0100
0010
1000
0111
0000
0000
0000
,
1100
1010
0101
0011
,
1001
0000
1110
0101
0011
1001
1110
0000
,
1010
0101
0011
1001
,
1100
0000
0000
0000
0010
0100
0010
0000
1000
0100
1000
0000
0010
0100
0010
1000
,
0100
0010
0001
0100
0010
1000
0010
0100
0001
1000
0100
1000
0010
0100
0001
0010
,
0001
0100
0010
0001
0010
0010
0100
0100
1000
1000
0010
0010
0100
1000
0100
0010
,
0001
0010
1000
0010
0001
0010
1000
0010
0001
0100
0010
0001
0010
0100
0001
0010
,
1000
0010
0100
0010
1000
1000
0001
0001
0100
0100
0010
0010
0001
1000
0010
0100
,
0010
1000
0100
0010
0100
1000
0010
0100
1000
0100
0010
1000
0010
0001
0010
0100
,
0001
0010
0100
0010
0001
0001
0100
0100
0010
0010
1000
1000
0010
0100
0001
0010
,
1000
0010
0001
0100
1000
0100
0010
1000
0010
0100
0001
0100
0010
1000
0010
0001
,
0010
0100
0001
0010
1000
1000
0001
0010
0001
0000
0010
0100
0010
1000
0001
0100
,
0010
1000
0100
0010
0001
0100
0001
0010
0100
1000
0010
0100
1000
0000
0001
0000
,
0100
0000
0000
0000
0000
0000
0010
0000
0000
0000
0000
0000
1000
0000
0000
0000
0002
0000
0000
0000
0000
0000
0000
0000
0000
0000
0000
0000
0003
0000
0000
0000
0000
0000
0000
0000
1000
0000
0000
0100
0000
0000
0010
0000
0000
0100
0000
0000
,
1000
0010
0100
0010
0100
0001
0100
0010
1000
0100
0010
0001
0100
0010
0001
0010
,
1000
0001
0200
0000
0000
0000
0000
0000
0300
0000
0000
1000
0001
0100
0010
1000
,
0100
0010
0001
1000
0001
0010
0100
1000
0100
0010
0001
1000
0001
0100
0010
1000
,
0100
0010
0001
1000
0001
0010
0100
1000
0100
0010
0001
1000
0010
0100
0010
1000
,
0001
0100
0001
0010
0001
0100
0010
1000
0010
0100
0001
1000
0100
1000
0010
0100
,
0010
1000
0010
0100
0001
0010
0001
0100
0010
1000
0100
1000
0010
0000
1000
0000
,
0001
0010
1000
0000
0100
0000
0010
0000
0001
0100
2000
0000
0100
0000
3000
0000
,
0100
1000
0010
0000
1000
0000
0001
0000
0100
1000
0010
0000
1000
0000
0010
0000
,
0100
0010
0001
0000
1000
0000
0100
0000
1000
0001
0020
0000
0030
0000
0200
0000
,
0300
0000
0001
1000
0002
0000
0000
0000
0010
1000
0103
0010
0100
1000
0010
0100
,
0001
1000
0100
1000
0010
0100
1000
0100
0010
1000
0010
0100
0001
0100
0010
0001
,
0010
0100
0010
1000
0100
0010
0001
0001
0200
0000
0300
0000
1000
0010
0000
0100
,
0001
0000
0000
0000
1000
0000
0000
0000
0010
0000
0000
0000
0100
0000
0000
0000
0001
0000
0000
0000
0100
0000
0000
0000
0010
0000
0000
0000
1000
0000
0000
0000
0001
0000
0000
0000
1000
0000
0000
0010
0000
0000
0100
0000
0000
0010
0000
0000
,
1000
0000
0000
0001
0000
0000
0100
0000
0000
0010
0000
0000
0002
0000
0000
0000
0000
0000
1000
0000
0000
0100
0000
0000
1000
0000
0000
0010
0000
0000
0103
0000
0000
0010
0000
0000
0100
0000
0000
0000
0001
0000
0000
0000
1000
0000
0000
0000
,
0001
0100
0010
0001
0010
1000
0100
1000
0001
0100
0100
0010
,
0100
0000
0000
0000
0001
0000
0000
0000
1000
0000
0000
0000
0200
0000
0000
0000
0000
0000
0010
0000
0000
0001
0000
0000
0010
0000
0000
0000
0300
0000
1000
0000
0000
0001
0000
0000
1000
0000
0000
0000
0100
0000
0000
0000
0010
0000
0000
0000
,
1000
0000
0000
0000
0010
0000
0000
0000
0100
0000
0000
0000
1000
0000
0000
0000
0010
0000
0000
0000
0100
0000
0000
0000
0001
0000
0000
0010
0000
0000
0100
0000
0000
0000
0000
0000
1000
0000
0000
0100
0000
0000
0010
0000
0000
0100
0000
0000
,
0010
1000
0202
0313
0002
0000
2020
3030
0003
0000
2200
3300
0022
0003
1000
0001
,
0100
0000
0001
1000
0031
0000
1100
0000
0110
0000
1001
0000
0011
0000
1010
0000
,
0000
0000
0101
0000
2020
0000
0001
0100
0001
3030
0100
1000
0001
0010
0100
0010
,
0001
0100
0010
1000
0010
0100
0001
0010
1000
0010
0001
0100
0010
0001
0010
1000
,
0010
0001
0010
0100
0002
0000
0100
1000
0010
0103
0010
0001
2000
0000
0010
0100
,
3001
0000
0020
1000
0100
0000
1030
0001
0200
0000
0010
1000
0001
0000
0010
0001
,
0010
0000
2002
0000
3003
0000
0022
0000
0033
0000
2320
0000
3032
0000
0100
0010
,
0103
0000
2000
0001
0010
0000
3001
0100
0020
0000
0001
0100
1030
0000
0010
1000
,
0200
0000
2002
3003
0000
0000
0022
0033
0000
0000
2320
3030
0202
0303
1000
0010
,
1000
0000
0200
0001
1000
0000
0301
0010
1000
0100
0010
0001
0100
0010
1000
0100
,
0010
1000
0220
0331
2000
0000
0202
0303
0000
0000
3022
0033
2020
3130
0001
1000
,
0010
0100
0001
0010
0100
0010
0001
1000
0100
1000
0010
0100
0010
0001
0010
1000
,
0010
0100
0001
0010
0100
0010
0001
0100
0010
0001
0010
1000
0220
0000
0000
0000
,
0330
1100
0011
0101
2020
0000
3030
0000
,
1100
0000
1001
0101
0110
1100
0022
0000
,
0033
1001
0110
1100
2020
0000
0000
3030
,
1001
0000
0011
1100
0110
1001
2022
0000
,
3033
0110
1100
0000
0101
0000
0011
0000
,
1100
0000
0000
0000
1010
0000
0000
0000
0001
0010
0100
1000
0011
0000
1100
0000
,
0110
0101
1010
0110
1001
1100
0011
1010
,
1001
0000
0110
0000
1001
0010
0100
0010
0001
1000
0010
0100
0022
0000
0033
1100
,
0110
1100
0022
0000
0000
0033
1100
0000
0011
0110
0101
1010
2002
0000
3003
0110
,
0101
0011
2020
0000
0000
3030
0101
0000
0011
1100
0101
1010
2202
0000
3303
0011
,
1100
0000
0000
0000
0101
0000
0000
0000
0011
0000
0000
0000
1010
0000
0000
0000
0110
0000
0000
0000
1000
0100
0010
0001
1010
0000
0101
0000
0011
0000
1100
0000
,
0110
0000
1001
0000
0110
0000
1100
0000
0011
0000
0110
0000
1001
0000
0110
0000
0010
0100
0001
1000
0110
0000
1010
0000
0101
0000
1000
0000
0010
0000
0100
0000
,
0010
1000
0010
0100
0001
0010
0100
0010
0001
0100
0010
0001
0010
1000
0010
0100
,
0001
0100
0001
0100
0010
1000
0010
0100
0010
1000
0100
0001
0100
0010
0001
1000
,
0010
0100
0010
1000
0010
0100
0010
1000
0100
0010
0100
1000
0010
0001
0010
1000
,
0010
0100
0001
0010
0100
0010
0001
0100
0010
0001
0010
1000
0010
0100
0001
0010
,
0100
1000
0100
0001
0100
0010
0001
0100
0010
0001
0010
1000
0010
0100
0010
1000
,
0010
0100
0001
0010
0100
1000
0100
0001
0100
1000
0100
0010
0001
0010
1000
0010
,
0001
0010
0001
0100
0010
0001
0010
0100
0001
1000
0100
1000
0100
1000
0010
0100
,
0010
1000
0001
0100
0010
0001
0010
1000
0100
0010
0100
0010
0001
0100
0010
0001
,
0010
1000
0010
0001
0010
0100
0001
0010
0100
0010
0001
1000
0100
0001
0100
0010
,
0001
0100
0010
0001
0010
1000
0010
0100
0010
1000
0100
1000
0010
0100
0010
0001
,
0010
1000
0001
0100
0010
0001
0010
1000
0100
0010
0100
1000
0010
0100
1000
0100
,
0010
0001
0010
1000
0010
0100
1000
0100
0001
0100
0010
0001
0010
1000
0100
0010
,
0100
1000
0010
0100
1000
0100
0010
1000
0010
0100
0010
1000
0100
0010
0100
1000
,
0100
0010
0001
0100
0010
0001
0010
0100
0001
0010
0100
0010
0001
1000
0001
1000
,
0010
0100
0010
1000
0100
0010
0100
1000
0010
1000
0001
1000
0001
1000
0010
0100
,
0001
1000
0001
1000
0010
0100
0001
1000
0001
1000
0001
1000
0101
0001
0001
0001
,
0001
0001
2020
3030
0000
0000
0220
0330
1000
1000
1000
1000
0202
0303
0010
0010
,
0010
0010
2200
3300
0000
0000
2002
3003
0010
0010
0010
0010
0202
0303
1000
1000
,
1000
1000
0022
0033
0000
0000
2002
3003
0010
0100
0010
0000
1001
0000
1010
0000
,
0101
0000
0011
0000
1010
0000
1100
0000
1001
0000
1010
0000
0001
0001
0001
0001
,
0001
0001
0220
0330
0000
0000
2020
3030
0100
0100
0100
0100
0022
0133
0100
0100
,
0100
0100
0022
0033
0000
0000
2002
3003
0010
1000
0010
0000
0100
0001
0100
0100
,
0100
0100
0100
0100
0100
0100
0100
0100
0100
0100
0100
0100
0100
0100
0100
0100
,
0100
0100
0202
0303
0000
0000
2200
3300
0000
0000
0220
0330
0101
0010
0001
0100
,
0010
1000
0010
0100
1000
0001
0100
0001
0010
0100
0010
0001
1000
0100
1000
0010
,
0100
0010
1000
0001
0100
0010
0001
0010
1000
0010
0100
0001
0010
0100
0010
0001
,
1000
0100
1000
0010
0100
0010
1000
0010
0100
0001
0010
0100
0010
0001
0100
0010
,
1000
0010
0100
0001
0100
0010
1000
0100
0001
0100
0010
0001
1000
0100
0010
0001
,
0100
0010
0001
0010
1000
0010
0100
0001
1000
0100
1000
0010
0100
0010
1000
0100
,
1000
0001
0100
0001
0010
0100
0010
0001
0100
0010
1000
0010
0100
0001
1000
0100
,
1000
0001
0100
0001
0010
0100
0010
0001
1000
0100
1000
0001
0100
0010
0100
0010
,
0100
0000
0001
1000
0010
0100
0001
1000
0100
1000
0001
0100
0020
0000
1000
0000
,
0100
0001
2000
0000
0000
3000
0100
0001
,
1000
0000
0000
0000
0001
0000
0000
0000
0200
0000
0000
0000
0300
0000
0001
0100
2000
0000
0030
0000
3101
0000
0000
0000
1010
0000
0000
0000
0000
0000
0000
0000
,
1001
1100
0110
1001
0101
0011
1010
0110
1100
0011
0110
0101
,
1010
0110
1001
0101
0011
1010
1100
0101
0011
1001
1100
0110
,
1010
0000
0101
0000
0011
0000
1001
0000
1100
0000
0110
0000
1001
0000
0110
0000
1010
0000
1001
0000
0010
0100
0010
0000
,
1000
0000
0001
1000
0100
0000
0010
0000
0001
0000
0100
0000
0010
0000
1000
0000
0100
0000
0022
0000
0000
0033
0000
0000
,
1001
0011
1100
0110
1001
1100
0110
0101
0011
1010
1100
1010
,
0101
0000
0000
0000
1001
0000
0000
0000
1010
0000
0000
0000
0001
0000
1000
0000
0001
0000
1000
0000
0000
0000
0000
0000
0010
0000
0100
0000
0010
0000
0100
0000
0000
0000
0000
0000
2002
0000
0000
0000
0000
0000
0000
0000
0000
3003
0000
0000
,
0110
1100
0101
1010
0110
1100
0101
0011
1001
1100
1001
0110
,
0101
0011
1010
1100
1001
0110
1010
0110
1100
0101
0011
1001
,
1100
0110
1001
0101
0011
1010
0110
1001
1100
0110
1100
0101
,
0011
1010
0110
1001
0110
0011
1010
0101
0110
1001
1100
0110
,
1010
0110
1001
0101
0011
1001
1100
0110
1010
0101
0110
1010
,
0101
0000
0000
0000
0011
0000
0000
0000
1001
0000
0000
0000
0100
0000
0000
0010
0000
0000
1000
0000
0000
0001
0000
0000
0110
0000
0000
0000
1100
0000
0000
0000
1010
0000
0000
0000
0101
0000
0000
0000
0000
0000
0000
0000
0000
0000
0000
0000
,
0100
0100
1000
0100
0010
1000
0010
0001
0100
0010
0001
0010
,
1000
0100
0010
1101
0001
0100
1010
0000
0100
1100
0000
0000
,
0111
0010
0010
1100
0000
0001
0111
0000
1000
0111
0110
1100
,
0101
1000
0100
0010
0001
0100
1001
0101
1010
0110
0001
1000
,
0100
0000
0000
0000
0010
0000
0000
0000
0001
0000
0000
0000
1110
0000
0000
0000
1000
0000
0000
0000
0010
0000
0000
0000
0100
0000
0000
0000
0100
0000
0000
0000
0010
0000
0000
0000
0220
0000
0000
0000
0000
0000
0000
0000
0000
0330
0000
0000
,
2202
0000
0000
3303
0000
0000
0001
0010
0001
0010
0001
0010
0100
1000
0100
1000
0100
1000
0010
0100
0010
0100
0010
0100
,
0001
1000
0001
1000
0001
1000
0110
0000
1100
0000
0101
0000
1001
0000
0000
0000
0000
0000
1001
0000
1100
0000
0101
0000
,
0110
1100
0101
0011
1010
1001
1100
1010
0110
0101
0011
1001
,
1100
0110
1010
0101
0011
1001
1100
1001
0101
0011
1010
0110
,
1010
0101
0110
1010
0101
0011
1001
1100
1010
0110
1010
0101
,
0011
1001
1100
1010
0101
0011
1010
0110
0101
0011
1100
1010
,
1100
0101
0011
1001
1100
1010
0101
0011
1010
0110
1100
0101
,
0010
0000
1000
0000
0001
0000
0010
0000
0001
0000
1000
0000
0110
0000
0000
0000
1100
0000
0000
0000
1001
0000
0000
0000
0000
0000
0000
0000
0110
0000
0000
0000
0000
0000
0000
0000
0001
0000
0000
0010
0000
0000
0100
0000
0000
1000
0000
0000
,
0010
0000
0000
0100
0000
0000
1000
0000
0000
0100
0000
0000
0011
0000
0000
0000
0000
0000
0000
0000
0000
0000
0000
0000
1001
0000
0000
0000
0000
0000
0000
0000
0000
0000
0000
0000
1000
0000
0000
0000
0100
0000
0000
0000
0010
0000
0000
0000
,
0001
0010
0010
1100
0000
0000
0001
0010
0100
1000
0100
0100
,
1010
0000
0000
0000
0000
0000
0000
0000
0001
0000
0100
0000
0011
0000
0000
0000
0110
0000
0000
0000
1000
0000
0000
0000
0100
0000
0000
0000
0000
0000
0000
0000
0000
0000
0000
0000
0010
0000
0000
0010
0000
0000
1000
0000
0000
1000
0000
0000
,
0010
0010
0001
0001
0110
0000
0000
0000
0001
0001
0100
0100
0010
0010
1000
1000
,
0101
0000
0000
0000
0000
0000
0000
0000
0000
0000
0000
0000
1000
0000
0000
1000
0000
0000
0010
0000
0000
0010
0000
0000
0100
0000
0000
0100
0000
0000
0001
0000
0000
0001
0000
0000
1010
0000
0000
0000
0001
0000
0100
0000
0001
0000
0000
0000
,
1000
0000
0010
0100
0010
0000
1000
0000
0001
0000
0100
0000
0010
0000
1000
0000
1000
0000
0001
0000
0100
0000
0100
0000
,
0010
0001
0001
0010
0100
1000
0100
0010
0010
1000
0001
0001
,
0100
0010
0010
1000
0100
0010
0001
1000
1000
0010
0100
0100
,
0001
0000
0000
0000
1000
0000
0000
0000
1000
0000
0000
0000
0010
0000
0000
0000
0100
0000
0000
0000
1000
0000
0000
0000
0011
0000
0000
0000
0000
0000
0000
0000
0000
0000
0000
0000
0000
0000
0000
0000
0000
0000
0001
0000
0000
0010
0000
0000
,
0100
0000
0000
1000
0000
0000
0010
0000
0000
0100
0000
0000
0011
0000
0000
0000
0000
0000
0000
0000
1001
0000
0000
0000
0100
0000
0000
0000
0010
0000
0000
0000
0010
0000
0000
0000
1000
0000
0000
0000
0001
0000
0000
0000
0001
0000
0000
0000
,
0100
0010
0010
0100
1000
1000
0100
0001
0001
0010
0100
0100
,
0020
0000
0030
1001
0000
0110
0001
0100
0100
0010
1000
1000
,
0001
0000
0000
0000
0010
0000
0000
0000
0010
0000
0000
0000
0100
0000
0000
0000
1000
0000
0000
0000
1000
0000
0000
0000
0001
0000
0000
0100
0000
0000
0010
0000
0000
1000
0000
0000
0001
0000
0000
0000
0100
0000
0000
0000
0010
0000
0000
0000
,
1000
0000
0100
0010
0001
0000
1000
0000
0010
0000
1000
0000
0100
0000
0001
0000
0001
0000
1000
0000
0010
0000
0010
0000
,
0100
1000
1000
0100
0010
0001
0010
0100
0100
0001
1000
1000
,
0010
0100
0100
0001
0010
0100
1000
0001
0001
0100
0010
0010
,
1000
0000
0000
0000
0001
0000
0000
0000
0001
0000
0000
0000
0100
0000
0000
0000
0010
0000
0000
0000
0001
0000
0000
0000
2200
0000
0000
0000
0000
0000
3300
0000
0000
0000
0000
0000
0000
0000
0000
0000
0000
0000
0010
0000
0000
0100
0000
0000
,
0010
0000
0000
1000
0000
0000
0100
0000
0000
0010
0000
0000
0101
0000
0000
0000
0000
0000
0000
0000
1001
0000
0000
0000
0100
0000
0000
0000
0010
0000
0000
0000
0010
0000
0000
0000
1000
0000
0000
0000
0001
0000
0000
0000
0001
0000
0000
0000
,
0100
0010
0010
0100
1000
1000
0100
0001
0001
0010
0100
0100
,
0020
0000
0030
1001
0000
0110
0001
0100
0100
0010
1000
1000
,
0001
0000
0000
0000
0010
0000
0000
0000
0010
0000
0000
0000
0100
0000
0000
0000
1000
0000
0000
0000
1000
0000
0000
0000
0101
0000
0000
0000
0000
0000
0000
0000
0000
0000
0000
0000
0001
0000
0000
0010
0000
0000
0001
0000
0000
0010
0000
0000
,
0100
1000
0100
1000
0022
0000
0000
0000
0033
0000
0000
0000
0000
0000
0000
0000
;

//---------------dance-single - HEAVY----------------
#NOTES:
     dance-single:
     HEAVY:
     Challenge:
     13:
     1.000,0.855,1.000,0.514,1.000:





0000
0000
0000
0000
0010
0100
0001
0010
,
0001
0000
0000
0000
0000
0000
1000
0000
0000
0000
0000
0000
0010
0000
0000
0000
0000
0000
0100
0000
0000
0000
0000
0000
0001
1000
0000
0000
0000
0000
0010
0000
0000
0000
0000
0000
1000
0000
0000
0000
0000
0000
0100
0000
0000
0000
0000
0000
,
0010
0000
0000
0000
0001
1000
0010
0100
0001
0000
0000
0000
0100
0000
0000
0000
1000
0000
0000
0000
0100
0000
0000
0000
0010
0000
0000
0000
1000
0000
0000
0000
,
0010
0100
0000
0000
0000
0000
0001
0000
0000
0000
0000
0000
0100
0000
0000
0000
0000
0000
0010
0000
0000
0000
0000
0000
1000
0000
0000
0010
0000
0000
0100
0000
0000
0001
0000
0000
1000
0000
0000
0100
0000
0000
0010
0000
0000
1000
0000
0000
,
0010
0001
1000
0010
0100
0001
1000
0100
,
0010
0001
0000
0000
0000
0000
1000
0000
0000
0000
0000
0000
0010
0000
0000
0000
0000
0000
0100
0000
0000
0000
0000
0000
0001
0000
0000
0000
0000
0000
1000
0000
0001
0000
0100
0000
0010
0000
0000
0000
0000
0000
0100
0000
0000
0000
0000
0000
,
0010
0000
0000
0000
0000
0000
1000
0000
0000
0000
0000
0000
0010
0000
0000
0000
0000
0000
0001
0000
0000
0000
0000
0000
0100
1000
0000
0000
0000
0000
0010
0000
0000
0000
0000
0000
1000
0000
0000
0000
0000
0000
0100
0000
0000
0000
0000
0000
,
0022
0000
0000
0033
0220
0000
0000
0330
2200
0000
0000
3300
0022
0000
0000
0033
,
0202
1000
0010
1000
,
0020
0000
0303
0000
2002
0000
0000
3003
2200
0000
3300
0000
2032
0000
0000
3003
,
0202
0000
1000
0000
0010
0000
1000
0303
,
2022
0000
0000
0000
0000
0000
0000
0000
0000
0000
0000
0000
0030
0000
0000
0000
0000
0000
0010
0000
0100
0000
0010
0000
0110
0000
0000
0000
0000
0000
0000
0000
0000
0000
0000
0000
0010
0000
0000
0000
0000
0000
0000
0000
0000
3003
0000
0000
,
2200
0010
0001
0010
,
0002
0000
3300
0000
0220
0000
0003
0330
0100
0010
1000
0100
1000
0010
0100
0010
,
2200
0000
0000
0000
0010
0000
0000
0000
0002
0003
0000
0000
0010
0000
3300
0000
,
2002
0000
0000
0000
0000
0000
0000
0000
0000
0000
0000
0000
0000
0000
0000
0000
0000
0000
0100
0000
0010
3003
0100
0000
1020
0000
0000
0000
0000
0000
0000
0000
0000
0000
0000
0000
1000
0000
0000
0000
0000
0000
0030
0000
0000
0000
0000
0000
,
0011
1100
1001
1010
0110
1100
0011
0101
1010
1100
0101
0110
,
1100
0101
0011
1100
1001
1100
0110
0011
1010
1100
0011
1001
,
0110
1100
1001
0101
0110
1010
0101
0011
1001
0110
1010
0110
,
0101
0000
1100
0000
0110
0000
0101
0000
1000
0000
0010
0000
0001
0100
0010
1000
0100
0010
0001
1000
0001
1000
0001
1000
,
0202
0000
0000
0303
0000
0000
1001
0000
1100
0000
0110
0000
1001
0000
0101
0000
0011
0000
1010
0000
0110
0000
1100
0000
,
0011
0110
0101
1010
0110
1001
0101
0011
1010
1100
0101
0011
,
1001
1100
0110
1010
0101
0011
1001
1100
0110
1001
0110
1010
,
1001
0000
0010
0100
0010
0000
1000
0000
0001
0000
0100
0000
0010
0000
0001
0000
0100
0000
0010
0000
1000
0000
0100
0000
,
0022
0000
0000
0033
0000
0000
1001
0000
0011
0000
1100
0000
0110
0000
1001
0000
1100
0000
0110
0000
0101
0000
0011
0000
,
1010
0000
1100
0000
1010
0000
0101
0000
1001
0000
1010
0000
0001
1000
0001
1000
0010
0100
0001
1000
0001
1000
0010
0100
,
2002
0000
0000
0000
0000
0000
0000
0000
0000
3003
0000
0000
0110
0000
0000
0000
1100
0000
0000
0000
0101
0000
0000
0000
1010
0000
0000
0000
0110
0000
0000
0000
1100
0000
0000
0000
0101
0000
0000
0000
0011
0000
0000
0000
1001
0000
0000
0000
,
1100
1001
0110
0101
0011
1010
1100
1001
0110
1010
0110
1100
,
0101
0011
1001
1100
0110
1001
0101
0011
1010
0110
1001
1100
,
0110
0000
1100
0000
0101
0000
0011
0000
1010
0000
0000
0000
0001
1000
0010
0100
0001
1000
0010
0100
0001
1000
0010
0100
,
2002
0000
3003
1010
0110
1001
0101
0011
1001
1100
0110
1010
,
0101
0110
1010
0101
0011
1001
0100
0010
1000
0011
0100
0010
,
0001
0010
1000
0110
0101
0011
1010
0110
1001
0101
0011
1010
,
1100
1001
0101
1010
0110
0101
0011
1001
1100
1010
0110
0101
,
0011
1001
0110
1010
1001
0101
0011
1001
0110
1100
0101
1001
,
0011
0000
0100
1000
0100
0000
0010
0000
0001
1000
0100
0000
0010
0000
1000
0000
0001
0000
0100
0000
0001
0000
0010
0000
,
2200
0000
0000
3300
0000
0000
1001
0000
0011
0000
0110
0000
1001
0000
0101
0000
0011
0000
1100
0000
1001
0000
0110
0000
,
1010
0101
1100
0101
0011
1001
1100
1010
0110
1001
0101
0011
,
1001
1100
1010
0110
1010
0101
0011
0110
1010
0110
0101
0011
,
1001
0000
0010
0100
0010
0000
1000
0000
0001
0000
0100
0000
0010
0000
0001
0000
0010
0000
1000
0000
0100
0000
0010
0000
,
1101
0001
0001
0100
0010
1000
0100
0010
1000
0010
0001
0100
,
0010
0001
0010
1000
0100
0010
1101
0001
0100
1010
0000
0100
,
1100
0000
0000
0111
0010
0010
1100
0000
0001
0111
0000
1000
,
0111
0110
1100
0101
1000
0100
0010
0001
0100
1001
0101
1010
,
0110
0001
1000
0100
0010
0001
1110
1000
0010
0100
0100
0010
,
0220
0000
0000
0000
0000
0000
0000
0000
0000
0330
0000
0000
2202
0000
0000
0000
0000
0000
3303
0000
0000
0000
0000
0000
0001
0000
0010
0000
0001
0000
0010
0000
0001
0000
0010
0000
0100
0000
1000
0000
0100
0000
1000
0000
0100
0000
1000
0000
,
0010
0100
0010
0100
0010
0100
0001
1000
0001
1000
0001
1000
0110
0000
1100
0000
0101
0000
1001
0000
0000
0000
0000
0000
,
1001
1100
0101
0110
1100
0101
0011
1010
1001
1100
1010
0110
,
0101
0011
1001
1100
0110
1010
0101
0011
1001
1100
1001
0101
,
0011
1010
0110
1010
0101
0110
1010
0101
0011
1001
1100
1010
,
0110
1010
0101
0011
1001
1100
1010
0101
0011
1010
0110
0101
,
0011
1100
1010
1100
0101
0011
1001
1100
1010
0101
0011
1010
,
0110
0000
1100
0000
0101
0000
0010
1000
0001
0010
0001
1000
0110
0000
1100
0000
1001
0000
0000
0000
0000
0000
0000
0000
,
1001
0010
0100
1000
0010
0100
1000
0100
0011
0000
0000
0000
1001
0000
0000
0000
,
1000
0100
0010
0001
0010
0010
1100
0000
0000
0001
0010
0100
,
1000
0000
0100
0000
0100
0000
1010
0000
0000
0000
0001
0100
0011
0000
0110
0000
1000
0000
0100
0000
0000
0000
0000
0000
,
0010
0010
1000
1000
0010
0010
0001
0001
0110
0000
0000
0000
0001
0001
0100
0100
,
0010
0010
1000
1000
0101
0000
0000
0000
1000
1000
0010
0010
0100
0100
0001
0001
,
1010
0000
0001
0100
0001
0000
1000
0000
0010
0100
0010
0000
1000
0000
0001
0000
0100
0000
0010
0000
1000
0000
1000
0000
,
0011
0100
0100
0010
0001
0001
1010
0100
1000
0100
0010
0010
,
1100
0001
0001
0100
0010
0010
1100
0100
0010
0001
1000
1000
,
0011
0100
0100
0001
1000
1000
0011
0100
1000
0011
0000
0000
,
1010
0000
0000
0000
0000
0000
0001
0000
0000
0010
0000
0000
0100
0000
0000
1000
0000
0000
0010
0000
0000
0100
0000
0000
0011
0000
0000
0000
0000
0000
0000
0000
1001
0000
0000
0000
0100
0000
0000
0000
0010
0000
0000
0000
0010
0000
0000
0000
,
1100
0001
0001
0100
0010
0010
0101
1000
1000
0100
0001
0001
,
1010
0100
0100
0020
0000
0030
1001
0000
0110
0001
0100
0100
,
0011
0000
0000
0000
1000
0000
0000
0000
1000
0000
0000
0000
0001
0000
0000
0000
0010
0000
0000
0000
0010
0000
0000
0000
0101
0000
0000
0000
1000
0000
0000
0000
1000
0000
0000
0000
0001
0000
0000
0100
0000
0000
0010
0000
0000
1000
0000
0000
,
0001
0000
0100
0000
0010
0000
1000
0000
0100
0010
0001
0000
1000
0000
0010
0000
1000
0000
0100
0000
0001
0000
0001
0000
,
1100
0010
0010
0100
1000
1000
0101
0010
0001
0010
0100
0100
,
0011
1000
1000
0010
0100
0100
1001
0010
0100
1000
0001
0001
,
1100
0010
0010
1000
0001
0001
1100
0010
0001
2200
3300
0000
,
0101
0000
0000
0000
0000
0000
1000
0000
0000
0100
0000
0000
0010
0000
0000
0001
0000
0000
0100
0000
0000
0010
0000
0000
1100
0000
0000
0000
0000
0000
0000
0000
1001
0000
0000
0000
0010
0000
0000
0000
0100
0000
0000
0000
0100
0000
0000
0000
,
0011
1000
1000
0010
0100
0100
1010
0001
0001
0010
1000
1000
,
0101
0010
0010
0200
0000
0300
1001
0000
0110
0001
0100
0100
,
0011
0000
1000
0000
1000
0000
0001
0000
0010
0000
0010
0000
0101
0000
1000
0000
1000
0000
0010
0100
0010
0100
0010
1000
,
0100
0010
0001
0100
0010
1000
0001
0010
0001
0010
0001
0010
1100
0000
1010
0000
0110
0000
1001
0000
0000
0000
0000
0000
,
1010
0101
1010
1001
1100
0110
1010
0101
0011
1100
0110
0101
,
0011
1001
1100
1010
0101
0011
1001
0110
1010
0101
0011
1001
,
1100
0110
1010
0101
0011
1100
0110
0101
0011
1100
1010
0101
,
0011
1100
1010
0101
1001
1010
0110
1001
0101
0011
1001
1100
,
0110
1001
0110
1010
0110
0101
0011
1001
1100
1010
0110
1001
,
0101
0000
0011
0000
1001
0000
0010
1000
0010
0100
0001
0010
1001
0000
0101
0000
1010
0000
0000
0000
0110
0000
0000
0000
,
0001
0010
0100
1000
0010
0100
1000
0100
0011
0000
0000
0000
1001
0000
0000
0000
,
1000
0100
0010
0001
0010
0010
1100
0000
0000
0001
0010
0100
,
1000
0000
0100
0000
0100
0000
1010
0000
0000
0000
0001
0100
0011
0000
0110
0000
1000
0000
0100
0000
0000
0000
0000
0000
,
0010
0010
1000
1000
0010
0010
0001
0001
0110
0000
0000
0000
0001
0001
0100
0100
,
0010
0010
1000
1000
0101
0000
0000
0000
1000
1000
0010
0010
0100
0100
0001
0001
,
1010
0000
0001
0100
0001
0000
1000
0000
0010
0100
0010
0000
1000
0000
0001
0000
0100
0000
0010
0000
1000
0000
1000
0000
,
0011
0100
0100
0010
0001
0001
1010
0100
1000
0100
0010
0010
,
1100
0001
0001
0100
0010
0010
1001
0100
0010
0001
1000
1000
,
0011
0100
0100
0001
1000
1000
0011
0100
1000
0011
0000
0000
,
1100
0000
0001
0000
0100
0000
0010
0000
1000
0001
0100
0000
0011
0000
0100
0000
1001
0000
0100
0000
0010
0000
0010
0000
,
1100
0001
0001
0100
0010
0010
0101
1000
1000
0100
0001
0001
,
1010
0100
0100
0020
0000
0030
1001
0000
0110
0001
0100
0100
,
0011
0000
1000
0000
1000
0000
0001
0000
0010
0000
0010
0000
0101
0000
1000
0000
1000
0000
0001
0100
0001
0000
0010
0000
,
0100
1000
0010
0100
0010
1000
0010
0001
0010
1000
0100
0100
,
1010
0001
0001
1000
0010
0010
1100
0001
0100
0001
1000
1000
,
0101
0010
0010
0001
1000
1000
0101
0010
0001
0010
0100
0100
,
1010
0001
0001
0010
0100
0100
1010
0001
0100
2020
3030
0000
,
1001
0000
0000
0000
0000
0000
0010
0000
0000
1000
0000
0000
0001
0000
0000
0100
0000
0000
0010
0000
0000
0001
0000
0000
1010
0000
0000
0000
0000
0000
0000
0000
0110
0000
0000
0000
0001
0000
0000
0000
1000
0000
0000
0000
1000
0000
0000
0000
,
0101
0010
0010
0001
1000
1000
0011
0100
0100
0001
0010
0010
,
1100
0000
0001
0000
0001
0000
0200
0000
0000
0300
0000
0000
0110
0000
0000
0000
1001
0000
0010
0000
0001
0000
0001
0000
,
1010
0100
0100
0010
1000
1000
0110
0001
0001
1100
0000
0000
,
0010
1000
0100
0010
0100
0010
0001
0100
0010
1000
0010
0100
1001
0000
0000
0000
,
0110
1100
0110
0011
1010
1001
0101
1010
0110
0101
1010
1100
,
0011
0000
0000
0000
0101
0000
0000
0000
1001
0000
0000
0000
0010
0000
0100
0000
0010
0000
0100
0000
0001
0000
1000
0000
0010
0000
0100
0000
0010
0000
0100
0000
0001
0000
1000
0000
0220
0000
0000
0000
0000
0000
0000
0000
0000
0330
0000
0000
,
1100
0110
1001
0101
0011
1010
0110
1001
0101
0011
1100
1010
,
0110
1001
0101
0011
1001
1100
1010
0101
0110
1100
0011
0101
,
1010
0110
1001
0101
0011
1100
1001
0110
1100
0110
0101
0011
,
1010
0000
1100
0000
0110
0000
0001
0010
1000
0100
0001
0010
1000
0100
0001
0010
1000
0100
0022
0000
0000
0033
0000
0000
,
1100
1010
0101
0011
1010
0110
1001
0101
0011
1010
0110
1001
,
1100
0011
0101
1100
0001
0100
0011
1000
0100
0010
0001
0100
,
1010
0101
0011
1100
1010
0101
0011
1010
1001
1010
0110
0101
,
0011
1001
1100
1010
0110
0101
0011
1001
1100
0110
1010
0101
,
0011
0000
1001
0000
1100
0000
0110
0000
1010
0000
0101
0000
0011
0000
1001
0000
0110
0000
1001
0000
0010
0100
0010
0000
,
1000
0000
0100
0010
0100
0000
0010
0000
0001
0000
0100
0000
0001
0000
1000
0000
0010
0000
2200
0000
0000
3300
0000
0000
,
0011
0110
0101
0011
1100
1010
1100
0110
0101
1010
0110
1001
,
0101
0011
1100
1010
0110
1001
0101
0011
0110
1001
1100
0110
,
1010
0000
0101
0000
0011
0000
1001
0000
1100
0000
0110
0000
1001
0000
0101
0000
0110
0000
1001
0000
0100
1000
0010
0000
,
1000
0001
0010
0100
0010
0001
0100
1000
0100
0001
0001
0001
,
0011
0000
0001
0000
1001
0000
0200
0000
0011
0300
0000
0000
1100
0000
1000
0000
1010
0000
1000
0000
1100
0000
1000
0000
,
0102
0000
0000
0000
0000
0000
0003
0000
1100
0000
0000
0000
0010
0000
0000
0100
0000
0000
0001
0000
0000
0010
0000
0000
1100
0000
0000
0010
0000
0000
0001
0000
0000
1000
0000
0000
0010
0000
0000
0000
0011
0000
0000
0000
0010
0000
0000
0000
,
0110
0000
0010
0000
0011
0000
2000
0000
0110
3000
0000
0000
1001
0000
0001
0000
0101
0000
0001
0000
1001
0000
0001
0000
,
0120
0000
0000
0030
0101
0000
1000
0100
0011
0000
0001
0000
1100
0000
0010
0000
1001
0000
0100
0000
0110
0000
0100
0000
,
1100
0000
0100
0000
0110
0000
0002
0000
1010
0003
0000
0000
1100
0000
1000
0000
1001
0000
1000
0000
1010
0000
1000
0000
,
0210
0000
0000
0000
0000
0000
0300
0000
1010
0000
0000
0000
0001
0000
0100
0000
1010
0000
0000
0000
0001
0000
1000
0000
0101
0000
0000
0000
0110
0000
0000
0000
1001
0000
0000
0000
0001
0000
0000
0100
0000
0000
0010
0000
0000
1000
0000
0000
,
0100
0010
0100
0010
1001
0100
0010
1000
0010
0100
0001
0100
0010
0001
0010
1000
,
0010
0100
0001
1000
0001
0010
1000
0010
0001
0100
0010
1000
0111
0000
0000
0000
,
1100
1010
0101
0011
,
1001
0000
1110
0101
0011
1001
1110
0000
,
1010
0101
0011
1001
,
1100
0000
0000
0000
0010
0100
0010
0000
1000
0100
1000
0000
0010
0100
0011
1000
,
0100
0010
1001
0100
0010
1000
0011
0100
0001
1000
0110
1000
0010
0100
1001
0010
,
0001
0100
1010
0001
0010
0010
0101
0100
1000
1000
0110
0010
0100
1000
0101
0010
,
0001
0010
1001
0010
0001
0010
1100
0010
0001
0100
1010
0001
0010
0100
1001
0010
,
1000
0010
0101
0010
1100
1000
0011
0001
1100
0100
0011
0010
0001
1000
0011
0100
,
0010
1000
0101
0010
0100
1000
0011
0100
1000
0100
0011
1000
0010
0001
1010
0100
,
0001
0010
1100
0010
0001
0001
0110
0100
0010
0010
1100
1000
0010
0100
1001
0010
,
1000
0010
1001
0100
1000
0100
0011
1000
0010
0100
1001
0100
0011
1000
0010
0001
,
0010
0100
1001
0010
1000
1000
0001
0010
0001
0000
0010
0100
0010
1000
0011
0100
,
0010
1000
0101
0010
0001
0100
1001
0010
0100
1000
0011
0100
1000
0000
0011
0000
,
0100
0000
0000
0000
0000
0000
0110
0000
0000
0000
0000
0000
1000
0000
0000
0000
0002
0000
1010
0000
0000
0000
0000
0000
0000
0000
0000
0000
0003
0000
0110
0000
0000
0000
0000
0000
1000
0000
0000
0100
0000
0000
0011
0000
0000
0100
0000
0000
,
1000
0010
0101
0010
0100
0001
1100
0010
1000
0100
1010
0001
0100
0010
0101
0010
,
1000
0001
0210
0000
0000
0000
1010
0000
0300
0000
0110
1000
0001
0100
0011
1000
,
0100
0010
0101
1000
0001
0010
0101
1000
0100
0010
0101
1000
0001
0100
0011
1000
,
0100
0010
0101
1000
0001
0010
0101
1000
0100
0010
0101
1000
0010
0100
0011
1000
,
0001
0100
1001
0010
0001
0100
0011
1000
0010
0100
0011
1000
0100
1000
0010
0100
,
0010
1000
0010
0100
0001
0010
0001
0100
0011
1000
0110
1000
0010
0000
1100
0000
,
0001
0010
1100
0000
0100
0000
1010
0000
0001
0100
2010
0000
0100
0000
3011
0000
,
0100
1000
0110
0000
1000
0000
0011
0000
0100
1000
0011
0000
1000
0000
0110
0000
,
0100
0010
1001
0000
1000
0000
0101
0000
1000
0001
0120
0000
0030
0000
0201
0000
,
0310
0100
0011
1000
0002
0000
1100
0000
0010
1000
0113
0010
0100
1000
0011
0100
,
0001
1000
0101
1000
0010
0100
1010
0100
0010
1000
0011
0100
0001
0100
1010
0001
,
0010
0100
0011
1000
0100
0010
1001
0001
0200
0000
1301
0000
1000
0010
0000
0100
,
0001
0000
0000
0000
1000
0000
0000
0000
0010
0000
0000
0000
0100
0000
0000
0000
0001
0000
0000
0000
0100
0000
0000
0000
0010
0000
0000
0000
1000
0000
0000
0000
0001
0000
0000
0000
1000
0000
0000
0010
0000
0000
0100
0000
0000
0010
0000
0000
,
1000
0000
0000
0001
0000
0000
0100
0000
0000
0010
0000
0000
0002
0000
0000
0000
0000
0000
1000
0000
0000
0100
0000
0000
1000
0000
0000
0010
0000
0000
0103
0000
0000
0010
0000
0000
0100
0000
0000
0000
0001
0000
0000
0000
1000
0000
0000
0000
,
0011
0100
0010
0100
0010
1000
0101
1000
0001
0010
0100
0010
,
1100
0000
0000
0000
0001
0000
0000
0000
1000
0000
0000
0000
0200
0000
0000
0000
0000
0000
0010
0000
0000
0001
0000
0000
1010
0000
0000
0000
0300
0000
1000
0000
0000
0001
0000
0000
0010
0000
0000
0000
0100
0000
0000
0000
0010
0000
0000
0000
,
1100
0000
0000
0000
0010
0000
0000
0000
0100
0000
0000
0000
1000
0000
0000
0000
0010
0000
0000
0000
0100
0000
0000
0000
1001
0000
0000
0010
0000
0000
0100
0000
0000
0000
0000
0000
0010
0000
0000
0100
0000
0000
0010
0000
0000
0100
0000
0000
,
0011
1000
0202
0313
0002
0000
2020
3030
1103
0000
2200
3300
0022
0003
1000
0001
,
1100
0000
0001
1000
0031
0000
1100
0000
0110
0000
1001
0000
0011
0000
1010
0000
,
1100
0000
0101
0000
2020
0000
0001
0100
0101
3030
0100
1000
0001
0010
0100
0010
,
1001
0100
0010
1000
0010
0100
0001
0010
1100
0010
0001
0100
0010
0001
0010
1000
,
0010
0001
0010
0100
0002
0000
0100
1000
0010
0103
0010
0001
2000
0000
0010
0100
,
3011
0000
0020
1000
0100
0000
1030
0001
0210
0000
0010
1000
0001
0000
0010
0001
,
1010
0000
0000
0000
0000
0000
2002
0000
0000
0000
0000
0000
3003
0000
0000
0000
0000
0000
0022
0000
0000
0000
0033
0000
1001
0000
0000
0000
0000
0000
2320
0000
0000
0000
0000
0000
3132
0000
0000
0000
0000
0000
0100
0000
0000
0010
0000
0000
,
1103
0000
2000
0001
0010
0000
3001
0100
1020
0000
0001
0100
1030
0000
0010
1000
,
0210
0000
2002
3003
0010
0000
0022
0033
1001
0000
2320
3030
0202
0303
1000
0010
,
1100
0000
0200
0001
0010
0000
0301
0010
1001
0100
0010
0001
0100
0010
1000
0100
,
0011
1000
0220
0331
2000
0000
0202
0303
0110
0000
3022
0033
2020
3130
0001
1000
,
0011
0100
0001
0010
0100
0010
0001
1000
0101
1000
0010
0100
1010
0001
0010
1000
,
0011
0100
1001
0010
0100
0010
1001
0100
1010
0001
0010
1000
0220
0000
0000
0000
,
0330
1100
0011
0101
2020
0000
3030
0000
,
1100
0000
1001
0101
0110
1100
0022
0000
,
0033
1001
0110
1100
2020
0000
0000
3030
,
1001
0000
0011
1100
0110
1001
2022
0000
,
3033
0110
1100
0000
0101
0000
0011
0000
,
1100
0000
0000
0000
1010
0000
0000
0000
0001
0010
0100
1000
0011
0000
1100
0000
,
0110
0101
1010
0110
1001
1100
0011
1010
,
1001
0000
0110
0000
1001
0010
0100
0010
0101
1000
0010
0100
0022
0000
0033
1100
,
0110
1100
0022
0000
0000
0033
1100
0000
0011
0110
0101
1010
2002
0000
3003
0110
,
0101
0011
2020
0000
0000
3030
0101
0000
0011
1100
0111
1010
2202
0000
3303
0011
,
1100
0000
0000
0000
0101
0000
0000
0000
0011
0000
0000
0000
1010
0000
0000
0000
0110
0000
0000
0000
1000
0100
0010
0001
1010
0000
0101
0000
0011
0000
1100
0000
,
0110
0000
1001
0000
0110
0000
1100
0000
0011
0000
0110
0000
1001
0000
0110
0000
0010
0100
0001
1000
0110
0000
1010
0000
0101
0000
1000
0000
0010
0000
0100
0000
,
0010
1000
0010
0100
1001
0010
0100
0010
0001
0100
0010
0001
0010
1000
0010
0100
,
0001
0100
0001
0100
0011
1000
0010
0100
0010
1000
0100
0001
0100
0010
0001
1000
,
0010
0100
0010
1000
0011
0100
0010
1000
0100
0010
0100
1000
0010
0001
0010
1000
,
0010
0100
0001
0010
1100
0010
0001
0100
0010
0001
0010
1000
0010
0100
0001
0010
,
0100
1000
0100
0001
1100
0010
0001
0100
0010
0001
0010
1000
0010
0100
0010
1000
,
0010
0100
0001
0010
0101
1000
0100
0001
0100
1000
0100
0010
0001
0010
1000
0010
,
0001
0010
0001
0100
1010
0001
0010
0100
0001
1000
0100
1000
0001
1000
0011
0100
,
0010
1000
0001
0100
1010
0001
0010
1000
0101
0010
1100
0010
0001
0100
0010
0001
,
0010
1000
0010
0001
1010
0100
0001
0010
0100
0010
0001
1000
0100
0001
0100
0010
,
0001
0100
0010
0001
0110
1000
0010
0100
0010
1000
0100
1000
0010
0100
0010
0001
,
0010
1000
0001
0100
1010
0001
0010
1000
0100
0010
0100
1000
0010
0100
1000
0100
,
0010
0001
0010
1000
0011
0100
1000
0100
1001
0100
1010
0001
0010
1000
0100
0010
,
0100
1000
0010
0100
1001
0100
0010
1000
0010
0100
0010
1000
0100
0010
0100
1000
,
0100
0010
0001
0100
1010
0001
0010
0100
0001
0010
0100
0010
0001
1000
0001
1000
,
0010
0100
0010
1000
0101
0010
0100
1000
0010
1000
0001
1000
0001
1000
0010
0100
,
0001
1000
0001
1000
0010
0100
0001
1000
0001
1000
0001
1000
0101
0001
0001
0001
,
0001
0001
2020
3031
0001
0001
0220
1330
1000
1000
1000
1000
0202
0313
0010
0010
,
0010
0010
2200
3310
0010
0010
2002
3013
0010
0010
0010
0010
0202
1303
1000
1000
,
1000
1000
0022
0133
0100
0100
2002
3013
0010
0010
0010
0010
1001
0000
1010
0000
,
0101
0000
0011
0000
1010
0000
1100
0000
1001
0000
1010
0000
0001
0001
0001
0001
,
0001
0001
0220
0331
0001
0001
2020
3130
0100
0100
0100
0100
0022
1033
1000
1000
,
1000
1000
0022
0133
0100
0100
2002
3013
0010
0010
0010
0010
0001
0001
0100
0100
,
0100
0100
0100
0100
0100
0100
0100
0100
0100
0100
0100
0100
0100
0100
0100
0100
,
0100
0100
0102
0103
0100
0100
2100
3100
0100
0100
0120
0130
0101
0010
1001
0100
,
0010
1000
0011
0100
1000
0001
0110
0001
0010
0100
1010
0001
1000
0100
1001
0010
,
0100
0010
1100
0001
0100
0010
0101
0010
1000
0010
1100
0001
0010
0100
1010
0001
,
1000
0100
1001
0010
0100
0010
1001
0010
0100
0001
1010
0100
0010
0001
1100
0010
,
1000
0010
1100
0001
0100
0010
1001
0100
0001
0100
1010
0001
1000
0100
1010
0001
,
0100
0010
0101
0010
1000
0010
1100
0001
1000
0100
1001
0010
0100
0010
1001
0100
,
1000
0001
0110
0001
0010
0100
1010
0001
0100
0010
1100
0010
0100
0001
1010
0100
,
1000
0001
0110
0001
0010
0100
1010
0001
1000
0100
1010
0001
0100
0010
0100
0010
,
1100
0000
0001
1000
0010
0100
0001
1000
0100
1000
0001
0100
0021
0000
1000
0000
,
0100
0001
2000
0000
0000
3000
0100
0001
,
1000
0000
0000
0000
0001
0000
0000
0000
0200
0000
0000
0000
0300
0000
0001
0100
2000
0000
0030
0000
3101
0000
0000
0000
1010
0000
0000
0000
0000
0000
0000
0000
,
1001
1100
0110
1001
0101
0011
1010
0110
1100
0011
0110
0101
,
1010
0110
1001
0101
0011
1010
1100
0101
0011
1001
1100
0110
,
1010
0000
0101
0000
0011
0000
1001
0000
1100
0000
0110
0000
1001
0000
0110
0000
1010
0000
1001
0000
0010
0100
0010
0000
,
1000
0000
0001
1000
0100
0000
0010
0000
0001
0000
0100
0000
0010
0000
1000
0000
0100
0000
0022
0000
0000
0033
0000
0000
,
1001
0011
1100
0110
1001
1100
0110
0101
0011
1010
1100
1010
,
0101
0000
0000
0000
1001
0000
0000
0000
1010
0000
0000
0000
0001
0000
1000
0000
0001
0000
1000
0000
0010
0000
0100
0000
0001
0000
1000
0000
0001
0000
1000
0000
0010
0000
0100
0000
2002
0000
0000
0000
0000
0000
0000
0000
0000
3003
0000
0000
,
0110
1100
0101
1010
0110
1100
0101
0011
1001
1100
1001
0110
,
0101
0011
1010
1100
1001
0110
1010
0110
1100
0101
0011
1001
,
1100
0110
1001
0101
0011
1010
0110
1001
1100
0110
1100
0101
,
0011
1010
0110
1001
0110
0011
1010
0101
0110
1001
1100
0110
,
1010
0110
1001
0101
0011
1001
1100
0110
1010
0101
0110
1010
,
0101
0000
0000
0000
0011
0000
0000
0000
1001
0000
0000
0000
0100
0000
0000
0010
0000
0000
1000
0000
0000
0001
0000
0000
0110
0000
0000
0000
1100
0000
0000
0000
1010
0000
0000
0000
0101
0000
0000
0000
0000
0000
0000
0000
0000
0000
0000
0000
,
0100
0100
1000
0100
0010
1000
0010
0001
0100
0010
0001
0010
,
1000
0100
0010
1101
0001
0100
1010
0000
0100
1100
0000
0000
,
0111
0010
0010
1100
0000
0001
0111
0000
1000
0111
0110
1100
,
0101
1000
0100
0010
0001
0100
1001
0101
1010
0110
0001
1000
,
0100
0000
0000
0000
0010
0000
0000
0000
0001
0000
0000
0000
1110
0000
0000
0000
1000
0000
0000
0000
0010
0000
0000
0000
0100
0000
0000
0000
0100
0000
0000
0000
0010
0000
0000
0000
0220
0000
0000
0000
0000
0000
0000
0000
0000
0330
0000
0000
,
2202
0000
0000
3303
0000
0000
0001
0010
0001
0010
0001
0010
0100
1000
0100
1000
0100
1000
0010
0100
0010
0100
0010
0100
,
0001
1000
0001
1000
0001
1000
0110
0000
1100
0000
0101
0000
1001
0000
0000
0000
0000
0000
1001
0000
1100
0000
0101
0000
,
0110
1100
0101
0011
1010
1001
1100
1010
0110
0101
0011
1001
,
1100
0110
1010
0101
0011
1001
1100
1001
0101
0011
1010
0110
,
1010
0101
0110
1010
0101
0011
1001
1100
1010
0110
1010
0101
,
0011
1001
1100
1010
0101
0011
1010
0110
0101
0011
1100
1010
,
1100
0101
0011
1001
1100
1010
0101
0011
1010
0110
1100
0101
,
0010
0000
1000
0000
0001
0000
0010
0000
0001
0000
1000
0000
0110
0000
0000
0000
1100
0000
0000
0000
1001
0000
0000
0000
0000
0000
0000
0000
0110
0000
0000
0000
0000
0000
0000
0000
0001
0000
0000
0010
0000
0000
0100
0000
0000
1000
0000
0000
,
0010
0000
0000
0100
0000
0000
1000
0000
0000
0100
0000
0000
0011
0000
0000
0000
0000
0000
0000
0000
0000
0000
0000
0000
1001
0000
0000
0000
0000
0000
0000
0000
0000
0000
0000
0000
1000
0000
0000
0000
0100
0000
0000
0000
0010
0000
0000
0000
,
0001
0010
0010
1100
0000
0000
0001
0010
0100
1000
0100
0100
,
1010
0000
0000
0000
0000
0000
0000
0000
0001
0000
0100
0000
0011
0000
0000
0000
0110
0000
0000
0000
1000
0000
0000
0000
0100
0000
0000
0000
0000
0000
0000
0000
0000
0000
0000
0000
0010
0000
0000
0010
0000
0000
1000
0000
0000
1000
0000
0000
,
0010
0010
0001
0001
0110
0000
0000
0000
0001
0001
0100
0100
0010
0010
1000
1000
,
0101
0000
0000
0000
0000
0000
0000
0000
0000
0000
0000
0000
1000
0000
0000
1000
0000
0000
0010
0000
0000
0010
0000
0000
0100
0000
0000
0100
0000
0000
0001
0000
0000
0001
0000
0000
1010
0000
0000
0000
0001
0000
0100
0000
0001
0000
0000
0000
,
1000
0000
0010
0100
0010
0000
1000
0000
0001
0000
0100
0000
0010
0000
1000
0000
1000
0000
0011
0000
0100
0000
0100
0000
,
0010
0001
0001
1010
0100
1000
0100
0010
0010
1100
0001
0001
,
0100
0010
0010
1001
0100
0010
0001
1000
1000
0011
0100
0100
,
0001
0000
0000
0000
1000
0000
0000
0000
1000
0000
0000
0000
0011
0000
0000
0000
0100
0000
0000
0000
1000
0000
0000
0000
0011
0000
0000
0000
0000
0000
0000
0000
0000
0000
0000
0000
1010
0000
0000
0000
0000
0000
0001
0000
0000
0010
0000
0000
,
0100
0000
0000
1000
0000
0000
0010
0000
0000
0100
0000
0000
0011
0000
0000
0000
0000
0000
0000
0000
1001
0000
0000
0000
0100
0000
0000
0000
0010
0000
0000
0000
0010
0000
0000
0000
1100
0000
0000
0000
0001
0000
0000
0000
0001
0000
0000
0000
,
0100
0010
0010
0101
1000
1000
0100
0001
0001
1010
0100
0100
,
0020
0000
0030
1001
0000
0110
0001
0100
0100
0011
1000
1000
,
0001
0000
0000
0000
0010
0000
0000
0000
0010
0000
0000
0000
0101
0000
0000
0000
1000
0000
0000
0000
1000
0000
0000
0000
0001
0000
0000
0100
0000
0000
0010
0000
0000
1000
0000
0000
0001
0000
0000
0000
0100
0000
0000
0000
0010
0000
0000
0000
,
1000
0000
0100
0010
0001
0000
1000
0000
0010
0000
1000
0000
0100
0000
0001
0000
0001
0000
1100
0000
0010
0000
0010
0000
,
0100
1000
1000
0101
0010
0001
0010
0100
0100
0011
1000
1000
,
0010
0100
0100
1001
0010
0100
1000
0001
0001
1100
0010
0010
,
1000
0000
0000
0000
0001
0000
0000
0000
0001
0000
0000
0000
1100
0000
0000
0000
0010
0000
0000
0000
0001
0000
0000
0000
2200
0000
0000
0000
0000
0000
3300
0000
0000
0000
0000
0000
0101
0000
0000
0000
0000
0000
0010
0000
0000
0100
0000
0000
,
0010
0000
0000
1000
0000
0000
0100
0000
0000
0010
0000
0000
0101
0000
0000
0000
0000
0000
0000
0000
1001
0000
0000
0000
0100
0000
0000
0000
0010
0000
0000
0000
0010
0000
0000
0000
1100
0000
0000
0000
0001
0000
0000
0000
0001
0000
0000
0000
,
0100
0010
0010
0101
1000
1000
0100
0001
0001
1010
0100
0100
,
0020
0000
0030
1001
0000
0110
0001
0100
0100
0011
1000
1000
,
0001
0000
0000
0000
0010
0000
0000
0000
0010
0000
0000
0000
0101
0000
0000
0000
1000
0000
0000
0000
1000
0000
0000
0000
0101
0000
0000
0000
0000
0000
0000
0000
0000
0000
0000
0000
0001
0000
0000
0010
0000
0000
0001
0000
0000
0010
0000
0000
,
0100
1000
0100
1000
0022
0000
0000
0000
0033
0000
0000
0000
0000
0000
0000
0000
;

//---------------dance-single - trigida----------------
#NOTES:
     dance-single:
     trigida:
     Medium:
     11:
     1.000,0.855,0.722,0.557,1.000:
  // measure 1
0000
0000
0000
0000
0010
0100
0001
0010
,  // measure 2
0001
0000
0000
0000
0000
0000
1000
0000
0000
0000
0000
0000
0010
0000
0000
0000
0000
0000
0100
0000
0000
0000
0000
0000
0001
1000
0000
0000
0000
0000
0010
0000
0000
0000
0000
0000
1000
0000
0000
0000
0000
0000
0100
0000
0000
0000
0000
0000
,  // measure 3
0010
0000
0000
0000
0001
1000
0010
0100
0001
0000
0000
0000
0100
0000
0000
0000
1000
0000
0000
0000
0100
0000
0000
0000
0010
0000
0000
0000
1000
0000
0000
0000
,  // measure 4
0010
0100
0000
0000
0000
0000
0001
0000
0000
0000
0000
0000
0100
0000
0000
0000
0000
0000
0010
0000
0000
0000
0000
0000
1000
0000
0000
0010
0000
0000
0100
0000
0000
0001
0000
0000
1000
0000
0000
0100
0000
0000
0010
0000
0000
1000
0000
0000
,  // measure 5
0010
0001
1000
0010
0100
0001
1000
0100
,  // measure 6
0010
0001
0000
0000
0000
0000
1000
0000
0000
0000
0000
0000
0010
0000
0000
0000
0000
0000
0100
0000
0000
0000
0000
0000
0001
0000
0000
0000
0000
0000
1000
0000
0001
0000
0100
0000
0010
0000
0000
0000
0000
0000
0100
0000
0000
0000
0000
0000
,  // measure 7
0010
0000
0000
0000
0000
0000
1000
0000
0000
0000
0000
0000
0010
0000
0000
0000
0000
0000
0001
0000
0000
0000
0000
0000
0100
1000
0000
0000
0000
0000
0010
0000
0000
0000
0000
0000
1000
0000
0000
0000
0000
0000
0100
0000
0000
0000
0000
0000
,  // measure 8
0022
0000
0000
0033
0220
0000
0000
0330
2200
0000
0000
3300
0022
0000
0000
0033
,  // measure 9
0202
1000
0010
1000
,  // measure 10
0020
0000
0303
0000
2002
0000
0000
3003
2200
0000
3300
0000
2032
0000
0000
3003
,  // measure 11
0202
0000
1000
0000
0010
0000
1000
0303
,  // measure 12
2022
0000
0000
0000
0000
0000
0000
0000
0000
0000
0000
0000
0030
0000
0000
0000
0000
0000
0010
0000
0100
0000
0010
0000
0100
0000
0000
0000
0000
0000
0000
0000
0000
0000
0000
0000
0010
0000
0000
0000
0000
0000
0000
0000
0000
3003
0000
0000
,  // measure 13
2200
0010
0001
0010
,  // measure 14
0002
0000
3300
0000
0220
0000
0003
0330
0100
0010
1000
0100
1000
0010
0100
0010
,  // measure 15
2200
0000
0000
0000
0010
0000
0000
0000
0002
0003
0000
0000
0010
0000
3300
0000
,  // measure 16
2002
0000
0000
0000
0000
0000
0000
0000
0000
0000
0000
0000
0000
0000
0000
0000
0000
0000
0100
0000
0010
3003
0100
0000
0020
0000
0000
0000
0000
0000
0000
0000
0000
0000
0000
0000
1000
0000
0000
0000
0000
0000
0030
0000
0000
0000
0000
0000
,  // measure 17
0010
0010
0010
0010
1000
1000
1000
1000
0100
0100
0100
0100
0001
0001
0001
0001
,  // measure 18
0020
0000
0000
0000
0000
0000
0030
0000
1000
0100
0010
0001
1000
0100
0010
0100
,  // measure 19
2000
0000
3000
0000
0001
0001
0001
0001
0100
0100
0100
0100
0010
0010
0010
0010
,  // measure 20
2000
0000
0000
0000
0000
0000
0000
0000
0000
0000
0000
0000
3000
0000
0000
0000
0000
0000
0010
0000
0000
1000
0000
0000
0001
0000
0100
0000
0010
0000
1000
0000
0100
0000
0010
0000
0001
0000
1000
0000
0001
0000
1000
0000
0001
0000
1000
0000
,  // measure 21
0202
0000
0303
0000
1000
1000
1000
1000
0100
0100
0100
0100
0001
0001
0001
0001
,  // measure 22
0200
0000
0000
0000
0000
0000
0300
0000
0001
0010
0100
1000
0001
0010
0100
0010
,  // measure 23
0002
0000
0000
0003
0100
0100
0100
0100
1000
1000
1000
1000
0010
0010
0010
0010
,  // measure 24
1001
0000
0010
0100
0010
0000
1000
0000
0001
0000
0100
0000
0010
0000
0001
0000
0100
0000
0010
0000
1000
0000
0100
0000
,  // measure 25
0022
0000
0033
0000
1000
1000
1000
1000
0010
0010
0010
0010
0100
0100
0100
0100
,  // measure 26
0010
0000
0000
0010
0000
0000
0010
0000
0000
0010
0000
0000
0010
0000
0000
0010
0000
0000
0010
0000
0000
0000
0000
0000
0001
0000
1000
0000
0001
0000
1000
0000
0000
0000
0000
0000
0010
0000
0100
0000
0010
0000
0100
0000
0000
0000
0000
0000
,  // measure 27
2002
0000
0000
3003
0100
0100
0100
0100
1000
1000
1000
1000
0001
0001
0001
0001
,  // measure 28
0010
0010
0010
0010
0010
0100
0001
1000
0100
0100
0100
0100
0100
0100
1000
0010
,  // measure 29
0001
0001
0001
0001
0100
0100
0100
0100
0010
0010
0010
0010
0001
0001
0001
0001
,  // measure 30
1000
0000
0000
1000
0000
0000
1000
0000
0000
1000
0000
0000
1000
0000
0000
1000
0000
0000
1000
0000
0000
0000
0000
0000
0001
0000
1000
0000
0010
0000
0100
0000
0001
0000
1000
0000
0010
0000
0100
0000
0001
0000
1000
0000
0010
0000
0100
0000
,  // measure 31
2002
0000
0000
0000
0000
0000
0000
0000
3003
0000
0000
0000
1000
0000
0000
1000
0000
0000
1000
0000
0000
1000
0000
0000
0010
0000
0000
0010
0000
0000
0010
0000
0000
0010
0000
0000
0100
0000
0000
0100
0000
0000
0100
0000
0000
0100
0000
0000
,  // measure 32
0001
0001
0001
0001
0001
0001
0100
0100
0010
0010
0010
0010
0010
0010
0010
0010
,  // measure 33
1000
1000
1000
1000
0100
0100
0100
0100
0001
0001
0001
0001
0010
0010
0010
0010
,  // measure 34
2000
0000
0000
0000
0000
0000
3000
0000
0010
0100
1000
0001
0010
0001
0100
0010
,  // measure 35
0002
0000
0000
0003
1000
1000
1000
1000
0001
0001
0001
0001
0010
0010
0010
0010
,  // measure 36
0010
0000
0100
1000
0100
0000
0010
0000
0001
1000
0100
0000
0010
0000
1000
0000
0001
0000
0100
0000
0001
0000
0010
0000
,  // measure 37
2200
0000
3300
0000
0001
0001
0001
0001
0100
0100
0100
0100
0010
0010
0010
0010
,  // measure 38
2000
0000
0000
0000
0000
0000
3000
0000
0100
0010
0001
0100
1000
0100
0010
0001
,  // measure 39
2000
0000
0000
3000
0100
0100
0100
0100
0010
0010
0010
0010
1000
1000
1000
1000
,  // measure 40
1000
0000
0010
0100
0010
0000
1000
0000
0001
0000
0100
0000
0010
0000
0001
0000
0010
0000
1000
0000
0100
0000
0010
0000
,  // measure 41
0100
0001
0001
0100
0010
1000
0100
0010
1000
0010
0001
0100
,  // measure 42
0010
0001
0010
1000
0100
0010
0001
0001
0100
1100
0000
0100
,  // measure 43
1100
0000
0000
0001
0010
0010
1100
0000
0001
0011
0000
1000
,  // measure 44
0101
0110
1100
0101
1000
0010
0100
0001
0100
1001
0101
1010
,  // measure 45
0110
0001
1000
0100
0010
0001
1000
0010
0010
0100
0001
0001
,  // measure 46
0220
0000
0000
0000
0000
0000
0000
0000
0000
0330
0000
0000
2202
0000
0000
0000
0000
0000
3303
0000
0000
0000
0000
0000
0001
0000
0010
0000
0001
0000
0010
0000
0001
0000
0010
0000
0100
0000
1000
0000
0100
0000
1000
0000
0100
0000
1000
0000
,  // measure 47
0010
0100
0010
0100
0010
0100
0001
1000
0001
1000
0001
1000
0110
0000
1100
0000
0101
0000
1001
0000
0000
0000
0000
0000
,  // measure 48
0001
0100
0010
1000
0100
0010
0001
0100
0010
0001
0010
1000
,  // measure 49
0100
0010
0001
0100
0100
0010
1000
1000
0001
0100
0000
0000
,  // measure 50
0001
0001
0100
0010
0010
1000
0010
0000
0100
0010
0000
0000
,  // measure 51
1000
0100
0010
0100
0010
0001
0100
0010
1000
0010
1000
0100
,  // measure 52
0001
0100
0010
0001
0100
0010
1000
0010
0100
0001
1000
0100
,  // measure 53
1000
0000
0001
0000
0100
0000
0010
1000
0001
0010
0001
1000
0110
0000
1100
0000
1001
0000
0000
0000
0110
0000
0000
0000
,  // measure 54
0001
0010
0100
1000
0010
0100
1000
0100
0011
0000
0000
0000
1001
0000
0000
0000
,  // measure 55
1000
0100
0010
0001
0010
0010
1100
0000
0000
0001
0010
0100
,  // measure 56
1000
0000
0100
0000
0100
0000
1010
0000
0000
0000
0001
0100
0011
0000
0110
0000
1000
0000
0100
0000
0000
0000
0000
0000
,  // measure 57
0010
0010
1000
1000
0010
0010
0001
0001
0110
0000
0000
0000
0001
0001
0100
0100
,  // measure 58
0010
0010
1000
1000
0101
0000
0000
0000
1000
1000
0010
0010
0100
0100
0001
0001
,  // measure 59
1010
0000
0001
0100
0001
0000
1000
0000
0010
0100
0010
0000
1000
0000
0001
0000
0100
0000
0010
0000
1000
0000
1000
0000
,  // measure 60
0001
0100
0100
0010
0001
0001
0010
0100
1000
0100
0010
0010
,  // measure 61
1000
0001
0001
0100
0010
0010
1000
0100
0010
0001
1000
1000
,  // measure 62
0010
0100
0100
0001
1000
1000
0010
0100
1000
0011
0000
0000
,  // measure 63
0000
0000
0000
0000
0000
0000
0001
0000
0000
0010
0000
0000
0100
0000
0000
1000
0000
0000
0010
0000
0000
0100
0000
0000
0011
0000
0000
0000
0000
0000
0000
0000
0000
0000
0000
0000
0100
0000
0000
0000
0010
0000
0000
0000
0010
0000
0000
0000
,  // measure 64
1000
0001
0001
0100
0010
0010
0100
1000
1000
0100
0001
0001
,  // measure 65
0010
0100
0100
0020
0000
0030
0000
0000
0000
0001
0100
0100
,  // measure 66
0010
0000
0000
0000
1000
0000
0000
0000
1000
0000
0000
0000
0001
0000
0000
0000
0010
0000
0000
0000
0010
0000
0000
0000
0100
0000
0000
0000
1000
0000
0000
0000
1000
0000
0000
0000
0001
0000
0000
0100
0000
0000
0010
0000
0000
1000
0000
0000
,  // measure 67
0001
0000
0100
0000
0010
0000
1000
0000
0100
0010
0001
0000
1000
0000
0010
0000
1000
0000
0100
0000
0001
0000
0001
0000
,  // measure 68
1000
0010
0010
0100
1000
1000
0100
0010
0001
0010
0100
0100
,  // measure 69
0001
1000
1000
0010
0100
0100
0001
0010
0100
1000
0001
0001
,  // measure 70
0100
0010
0010
1000
0001
0001
0100
0010
0001
2200
3300
0000
,  // measure 71
0000
0000
0000
0000
0000
0000
1000
0000
0000
0100
0000
0000
0010
0000
0000
0001
0000
0000
0100
0000
0000
0010
0000
0000
1100
0000
0000
0000
0000
0000
0000
0000
0000
0000
0000
0000
0010
0000
0000
0000
0100
0000
0000
0000
0100
0000
0000
0000
,  // measure 72
0001
1000
1000
0010
0100
0100
0010
0001
0001
0010
1000
1000
,  // measure 73
0100
0010
0010
0200
0000
0300
0000
0000
0000
0001
0100
0100
,  // measure 74
0010
0000
1000
0000
1000
0000
0001
0000
0010
0000
0010
0000
0100
0000
1000
0000
1000
0000
0010
0100
0010
0100
0010
1000
,  // measure 75
0100
0010
0001
0100
0010
1000
0001
0010
0001
0010
0001
0010
1100
0000
1010
0000
0110
0000
1001
0000
0000
0000
0000
0000
,  // measure 76
1000
0010
0100
0001
0010
0100
1000
0010
0100
1000
0100
0001
,  // measure 77
0010
0100
1000
0010
0010
0100
0001
0001
1000
0010
0000
0000
,  // measure 78
1000
1000
0010
0100
0100
0001
0100
0000
0010
0100
0000
0000
,  // measure 79
0001
0010
0100
0010
0100
1000
0010
0100
0001
0100
0001
0010
,  // measure 80
1000
0010
0100
1000
0010
0100
0001
0100
0010
1000
0001
0100
,  // measure 81
1000
0000
0100
0000
0001
0000
0010
1000
0010
0100
0001
0010
1001
0000
0101
0000
1010
0000
0000
0000
0110
0000
0000
0000
,  // measure 82
0001
0010
0100
1000
0010
0100
1000
0100
0011
0000
0000
0000
1001
0000
0000
0000
,  // measure 83
1000
0100
0010
0001
0010
0010
1100
0000
0000
0001
0010
0100
,  // measure 84
1000
0000
0100
0000
0100
0000
1010
0000
0000
0000
0001
0100
0011
0000
0110
0000
1000
0000
0100
0000
0000
0000
0000
0000
,  // measure 85
0010
0010
1000
1000
0010
0010
0001
0001
0110
0000
0000
0000
0001
0001
0100
0100
,  // measure 86
0010
0010
1000
1000
0101
0000
0000
0000
1000
1000
0010
0010
0100
0100
0001
0001
,  // measure 87
1010
0000
0001
0100
0001
0000
1000
0000
0010
0100
0010
0000
1000
0000
0001
0000
0100
0000
0010
0000
1000
0000
1000
0000
,  // measure 88
0001
0100
0100
0010
0001
0001
0010
0100
1000
0100
0010
0010
,  // measure 89
1000
0001
0001
0100
0010
0010
1000
0100
0010
0001
1000
1000
,  // measure 90
0010
0100
0100
0001
1000
1000
0010
0100
1000
0011
0000
0000
,  // measure 91
0000
0000
0001
0000
0100
0000
0010
0000
1000
0001
0100
0000
0010
0000
1000
0000
0001
0000
0100
0000
0010
0000
0010
0000
,  // measure 92
1000
0001
0001
0100
0010
0010
0100
1000
1000
0100
0001
0001
,  // measure 93
0010
0100
0100
0020
0000
0030
0000
0000
0000
0001
0100
0100
,  // measure 94
0010
0000
1000
0000
1000
0000
0001
0000
0010
0000
0010
0000
0100
0000
1000
0000
1000
0000
0001
0100
0001
0000
0010
0000
,  // measure 95
0100
1000
0010
0100
0010
1000
0010
0001
0010
1000
0100
0100
,  // measure 96
0010
0001
0001
1000
0010
0010
1000
0001
0100
0001
1000
1000
,  // measure 97
0100
0010
0010
0001
1000
1000
0100
0010
0001
0010
0100
0100
,  // measure 98
1000
0001
0001
0010
0100
0100
1000
0001
0100
2020
3030
0000
,  // measure 99
0000
0000
0000
0000
0000
0000
0010
0000
0000
1000
0000
0000
0001
0000
0000
0100
0000
0000
0010
0000
0000
0001
0000
0000
1010
0000
0000
0000
0000
0000
0000
0000
0000
0000
0000
0000
0001
0000
0000
0000
1000
0000
0000
0000
1000
0000
0000
0000
,  // measure 100
0100
0010
0010
0001
1000
1000
0001
0100
0100
0001
0010
0010
,  // measure 101
1000
0000
0001
0000
0001
0000
0200
0000
0000
0300
0000
0000
0000
0000
0000
0000
0000
0000
0010
0000
0001
0000
0001
0000
,  // measure 102
1000
0100
0100
0010
1000
1000
0010
0001
0001
0100
0000
0000
,  // measure 103
0010
1000
0100
0010
0100
0010
0001
0100
0010
1000
0010
0100
1001
0000
0000
0000
,  // measure 104
0010
0010
0010
0010
1000
1000
1000
1000
0001
0001
0001
0001
0100
0100
0100
0100
,  // measure 105
0100
0000
0000
0100
0000
0000
0100
0000
0000
0000
0000
0000
0010
0000
1000
0000
0010
0000
1000
0000
0000
0000
0000
0000
0100
0000
0001
0000
0100
0000
0001
0000
0000
0000
0000
0000
0220
0000
0000
0000
0000
0000
0000
0000
0000
0330
0000
0000
,  // measure 106
0001
0001
0001
0001
1000
1000
1000
1000
0010
0010
0010
0010
1000
1000
1000
1000
,  // measure 107
1000
0100
0001
0010
0100
0100
0100
0100
0100
0100
0010
1000
0001
0001
0001
0001
,  // measure 108
0100
0100
0100
0100
0010
0010
0010
0010
1000
1000
1000
1000
0100
0100
0100
0100
,  // measure 109
0100
0000
0000
0100
0000
0000
0100
0000
0000
0000
0000
0000
0001
0000
0010
0000
1000
0000
0100
0000
0001
0000
0010
0000
1000
0000
0100
0000
0001
0000
0010
0000
1000
0000
0100
0000
0022
0000
0000
0000
0000
0000
0033
0000
0000
0000
0000
0000
,  // measure 110
0100
0100
0100
0100
0001
0001
0001
0001
1000
1000
1000
1000
0001
0001
0001
0001
,  // measure 111
0001
0001
0100
0100
0010
0010
0010
0010
0010
0010
0010
0010
1000
1000
1000
1000
,  // measure 112
0100
0100
0100
0100
0001
0001
0001
0001
0010
0010
0010
0010
2000
0000
0000
0000
,  // measure 113
0000
0000
3000
0000
1000
0100
0010
0001
0100
0010
1000
0010
0200
0000
0000
0300
,  // measure 114
0001
0000
0000
0001
0000
0000
0001
0000
0000
0001
0000
0000
0010
0000
0000
0010
0000
0000
0010
0000
0000
0010
0000
0000
1000
0000
0000
1000
0000
0000
1000
0000
0000
1000
0000
0000
1000
0000
0000
0000
0010
0000
0100
0000
0010
0000
0000
0000
,  // measure 115
1000
0000
0100
0010
0100
0000
0010
0000
0001
0000
0100
0000
0001
0000
1000
0000
0010
0000
2200
0000
0000
3300
0000
0000
,  // measure 116
1000
1000
1000
1000
0010
0010
0010
0010
0100
0100
0100
0100
0002
0000
0000
0000
,  // measure 117
0000
0000
0003
0000
0010
0100
1000
0100
0010
1000
0010
0001
0020
0000
0000
0030
,  // measure 118
1000
0000
0000
1000
0000
0000
1000
0000
0000
1000
0000
0000
0010
0000
0000
0010
0000
0000
0010
0000
0000
0010
0000
0000
0001
0000
0000
0001
0000
0000
0001
0000
0000
0001
0000
0000
0001
0000
0000
0000
0100
0000
1000
0000
0010
0000
0000
0000
,  // measure 119
1000
0001
0010
0100
0010
0001
0100
1000
0100
0010
0010
0010
,  // measure 120
0010
0000
0010
0000
0010
0000
0200
0000
0000
0300
0000
0000
1000
0000
1000
0000
1000
0000
1000
0000
1000
0000
1000
0000
,  // measure 121
0002
0000
0000
0000
0000
0000
0003
0000
0000
0000
0000
0000
0010
0000
0000
0100
0000
0000
0001
0000
0000
0010
0000
0000
0100
0000
0000
0010
0000
0000
0001
0000
0000
1000
0000
0000
0010
0000
0000
0000
0010
0000
0000
0000
0010
0000
0000
0000
,  // measure 122
0010
0000
0010
0000
0010
0000
2000
0000
0000
3000
0000
0000
0001
0000
0001
0000
0001
0000
0001
0000
0001
0000
0001
0000
,  // measure 123
0020
0000
0000
0030
0000
0000
1000
0100
0010
0000
0001
0000
0100
0000
0010
0000
1000
0000
0100
0000
0100
0000
0100
0000
,  // measure 124
0100
0000
0100
0000
0100
0000
0002
0000
0000
0003
0000
0000
1000
0000
1000
0000
1000
0000
1000
0000
1000
0000
1000
0000
,  // measure 125
0200
0000
0000
0000
0000
0000
0300
0000
0000
0000
0000
0000
0001
0000
0100
0000
0010
0000
0000
0000
0001
0000
1000
0000
0101
0000
0000
0000
0110
0000
0000
0000
1001
0000
0000
0000
0001
0000
0000
0100
0000
0000
0010
0000
0000
1000
0000
0000
,  // measure 126
0100
0010
0100
0010
0001
0100
0010
1000
0010
0100
0001
0100
0010
0001
0010
1000
,  // measure 127
0010
0100
0001
1000
0001
0010
1000
0010
0001
0100
0010
1000
0111
0000
0000
0000
,  // measure 128
1100
1010
0101
0011
,  // measure 129
1001
0000
1110
0101
0011
1001
1110
0000
,  // measure 130
1010
0101
0011
1001
,  // measure 131
1100
0000
0000
0000
0010
0100
0010
0000
1000
0100
1000
0000
0010
0100
0010
1000
,  // measure 132
0100
0010
0001
0100
0010
1000
0010
0100
0001
1000
0100
1000
0010
0100
0001
0010
,  // measure 133
0001
0100
0010
0001
0010
0010
0100
0100
1000
1000
0010
0010
0100
1000
0100
0010
,  // measure 134
0001
0010
1000
0010
0001
0010
1000
0010
0001
0100
0010
0001
0010
0100
0001
0010
,  // measure 135
1000
0010
0100
0010
1000
1000
0001
0001
0100
0100
0010
0010
0001
1000
0010
0100
,  // measure 136
0010
1000
0100
0010
0100
1000
0010
0100
1000
0100
0010
1000
0010
0001
0010
0100
,  // measure 137
0001
0010
0100
0010
0001
0001
0100
0100
0010
0010
1000
1000
0010
0100
0001
0010
,  // measure 138
1000
0010
0001
0100
1000
0100
0010
1000
0010
0100
0001
0100
0010
1000
0010
0001
,  // measure 139
0010
0100
0001
0010
1000
1000
0001
0010
0001
0000
0010
0100
0010
1000
0001
0100
,  // measure 140
0010
1000
0100
0010
0001
0100
0001
0010
0100
1000
0010
0100
1000
0000
0001
0000
,  // measure 141
0100
0000
0000
0000
0000
0000
0010
0000
0000
0000
0000
0000
1000
0000
0000
0000
0002
0000
0000
0000
0000
0000
0000
0000
0000
0000
0000
0000
0003
0000
0000
0000
0000
0000
0000
0000
1000
0000
0000
0100
0000
0000
0010
0000
0000
0100
0000
0000
,  // measure 142
1000
0010
0100
0010
0100
0001
0100
0010
1000
0100
0010
0001
0100
0010
0001
0010
,  // measure 143
1000
0001
0200
0000
0000
0000
0000
0000
0300
0000
0000
1000
0001
0100
0010
1000
,  // measure 144
0100
0010
0001
1000
0001
0010
0100
1000
0100
0010
0001
1000
0001
0100
0010
1000
,  // measure 145
0100
0010
0001
1000
0001
0010
0100
1000
0100
0010
0001
1000
0010
0100
0010
1000
,  // measure 146
0001
0100
0001
0010
0001
0100
0010
1000
0010
0100
0001
1000
0100
1000
0010
0100
,  // measure 147
0010
1000
0010
0100
0001
0010
0001
0100
0010
1000
0100
1000
0010
0000
1000
0000
,  // measure 148
0001
1000
0100
0010
0001
2000
0000
0000
,  // measure 149
3000
0010
1000
0001
0100
0010
1000
0010
,  // measure 150
0100
0001
1000
0100
1000
0020
0030
0200
,  // measure 151
0300
0000
0001
1000
0002
0000
0000
0000
0000
0000
0003
0000
0100
1000
0010
0100
,  // measure 152
0001
1000
0100
1000
0010
0100
1000
0100
0010
1000
0010
0100
0001
0100
0010
0001
,  // measure 153
0010
0100
0010
1000
0100
0010
0001
0001
0200
0000
0300
0000
1000
0010
0000
0100
,  // measure 154
0001
0000
0000
0000
1000
0000
0000
0000
0010
0000
0000
0000
0100
0000
0000
0000
0001
0000
0000
0000
0100
0000
0000
0000
0010
0000
0000
0000
1000
0000
0000
0000
0001
0000
0000
0000
1000
0000
0000
0010
0000
0000
0100
0000
0000
0010
0000
0000
,  // measure 155
1000
0000
0000
0001
0000
0000
0100
0000
0000
0010
0000
0000
0002
0000
0000
0000
0000
0000
0000
0000
0000
0000
0000
0000
0000
0000
0000
0000
0000
0000
0003
0000
0000
0000
0000
0000
0100
0000
0000
0000
0001
0000
0000
0000
1000
0000
0000
0000
,  // measure 156
0001
0100
0010
0001
0010
1000
0100
1000
0001
0100
0100
0010
,  // measure 157
0100
0001
1000
0200
0000
0000
0000
0300
0000
1000
0100
0010
,  // measure 158
1000
0000
0000
0000
0010
0000
0000
0000
0100
0000
0000
0000
1000
0000
0000
0000
0010
0000
0000
0000
0100
0000
0000
0000
0001
0000
0000
0010
0000
0000
0100
0000
0000
0000
0000
0000
1000
0000
0000
0100
0000
0000
0010
0000
0000
0100
0000
0000
,  // measure 159
0010
1000
0100
0010
0002
0000
0000
0000
0003
0000
2000
3000
0020
0000
0000
0000
,  // measure 160
0000
0000
0030
1100
0110
1001
0011
1010
,  // measure 161
0000
0000
0101
0000
2020
0000
0000
0000
0000
3030
0000
0000
0001
0010
0100
0010
,  // measure 162
0001
0100
0010
1000
0010
0100
0001
0010
1000
0010
0001
0100
0010
0001
0010
1000
,  // measure 163
0010
0001
0010
0100
0002
0000
0100
1000
0010
0103
0010
0001
2000
0000
0000
0000
,  // measure 164
3000
0020
0000
0030
0200
0000
0000
0000
,  // measure 165
0000
2002
3003
0022
0033
2320
3032
0000
,  // measure 166
0003
2000
3000
0100
0020
0000
0000
0030
,  // measure 167
0200
0000
2002
3003
0000
0000
0022
0033
0000
0000
2320
3030
0202
0303
1000
0000
,  // measure 168
0010
0000
0200
0000
0000
0000
0300
0000
1000
0100
0010
0001
0100
0010
1000
0100
,  // measure 169
0010
0001
0100
0001
2000
0000
0202
0303
0000
0000
3022
0033
2020
3130
0001
1000
,  // measure 170
0010
0100
0001
0010
0100
0010
0001
1000
0100
1000
0010
0100
0010
0001
0010
1000
,  // measure 171
0010
0100
0001
0010
0100
0010
0001
0100
0010
0001
0010
1000
0220
0000
0000
0000
,  // measure 172
0330
1100
0011
0101
2020
0000
3030
0000
,  // measure 173
1100
0000
1001
0101
0110
1100
0022
0000
,  // measure 174
0033
1001
0110
1100
2020
0000
0000
3030
,  // measure 175
1001
0000
0011
1100
0110
1001
2022
0000
,  // measure 176
3033
0110
1100
0000
0101
0000
0011
0000
,  // measure 177
1100
0000
0000
0000
1010
0000
0000
0000
0001
0010
0100
1000
0011
0000
1100
0000
,  // measure 178
0110
0101
1010
0110
1001
1100
0011
1010
,  // measure 179
1001
0000
0110
0000
1001
0010
0100
0010
0001
1000
0010
0100
0022
0000
0033
1100
,  // measure 180
0110
1100
0022
0000
0000
0033
1100
0000
0011
0110
0101
1010
2002
0000
3003
0110
,  // measure 181
0101
0011
2020
0000
0000
3030
0101
0000
0011
1100
0101
1010
2202
0000
3303
0011
,  // measure 182
1100
0000
0000
0000
0101
0000
0000
0000
0011
0000
0000
0000
1010
0000
0000
0000
0110
0000
0000
0000
1000
0100
0010
0001
1010
0000
0101
0000
0011
0000
1100
0000
,  // measure 183
0110
0000
1001
0000
0110
0000
1100
0000
0011
0000
0110
0000
1001
0000
0110
0000
0010
0100
0001
1000
0110
0000
1010
0000
0101
0000
1000
0000
0010
0000
0100
0000
,  // measure 184
0010
1000
0010
0100
0001
0010
0100
0010
0001
0100
0010
0001
0010
1000
0010
0100
,  // measure 185
0001
0100
0001
0100
0010
1000
0010
0100
0010
1000
0100
0001
0100
0010
0001
1000
,  // measure 186
0010
0100
0010
1000
0010
0100
0010
1000
0100
0010
0100
1000
0010
0001
0010
1000
,  // measure 187
0010
0100
0001
0010
0100
0010
0001
0100
0010
0001
0010
1000
0010
0100
0001
0010
,  // measure 188
0100
1000
0100
0001
0100
0010
0001
0100
0010
0001
0010
1000
0010
0100
0010
1000
,  // measure 189
0010
0100
0001
0010
0100
1000
0100
0001
0100
1000
0100
0010
0001
0010
1000
0010
,  // measure 190
0001
0010
0001
0100
0010
0001
0010
0100
0001
1000
0100
1000
0100
1000
0010
0100
,  // measure 191
0010
1000
0001
0100
0010
0001
0010
1000
0100
0010
0100
0010
0001
0100
0010
0001
,  // measure 192
0010
1000
0010
0001
0010
0100
0001
0010
0100
0010
0001
1000
0100
0001
0100
0010
,  // measure 193
0001
0100
0010
0001
0010
1000
0010
0100
0010
1000
0100
1000
0010
0100
0010
0001
,  // measure 194
0010
1000
0001
0100
0010
0001
0010
1000
0100
0010
0100
1000
0010
0100
1000
0100
,  // measure 195
0010
0001
0010
1000
0010
0100
1000
0100
0001
0100
0010
0001
0010
1000
0100
0010
,  // measure 196
0100
1000
0010
0100
1000
0100
0010
1000
0010
0100
0010
1000
0100
0010
0100
1000
,  // measure 197
0100
0010
0001
0100
0010
0001
0010
0100
0001
0010
0100
0010
0001
1000
0001
1000
,  // measure 198
0010
0100
0010
1000
0100
0010
0100
1000
0010
1000
0001
1000
0001
1000
0010
0100
,  // measure 199
0001
1000
0001
1000
0010
0100
0001
1000
0001
1000
0001
1000
0101
0001
0001
0001
,  // measure 200
0001
0001
2020
3030
0000
0000
0220
0330
1000
1000
1000
1000
0202
0303
0010
0010
,  // measure 201
0010
0010
2200
3300
0000
0000
2002
3003
0010
0010
0010
0010
0202
0303
1000
1000
,  // measure 202
1000
1000
0022
0033
0000
0000
2002
3003
0010
0100
0010
0000
1001
0000
1010
0000
,  // measure 203
0101
0000
0011
0000
1010
0000
1100
0000
1001
0000
1010
0000
0001
0001
0001
0001
,  // measure 204
0001
0001
0220
0330
0000
0000
2020
3030
0100
0100
0100
0100
0022
0033
0100
0100
,  // measure 205
0100
0100
0022
0033
0000
0000
2002
3003
0010
1000
0010
0000
0100
0001
0100
0100
,  // measure 206
0100
0100
0100
0100
0100
0100
0100
0100
0100
0100
0100
0100
0100
0100
0100
0100
,  // measure 207
0100
0100
0202
0303
0000
0000
2200
3300
0000
0000
0220
0330
0101
0010
0001
0100
,  // measure 208
0010
1000
0010
0100
1000
0001
0100
0001
0010
0100
0010
0001
1000
0100
1000
0010
,  // measure 209
0100
0010
1000
0001
0100
0010
0001
0010
1000
0010
0100
0001
0010
0100
0010
0001
,  // measure 210
1000
0100
1000
0010
0100
0010
1000
0010
0100
0001
0010
0100
0010
0001
0100
0010
,  // measure 211
1000
0010
0100
0001
0100
0010
1000
0100
0001
0100
0010
0001
1000
0100
0010
0001
,  // measure 212
0100
0010
0001
0010
1000
0010
0100
0001
1000
0100
1000
0010
0100
0010
1000
0100
,  // measure 213
1000
0001
0100
0001
0010
0100
0010
0001
0100
0010
1000
0010
0100
0001
1000
0100
,  // measure 214
1000
0001
0100
0001
0010
0100
0010
0001
1000
0100
1000
0001
0100
0010
0100
0010
,  // measure 215
0100
0000
0001
1000
0010
0100
0001
1000
0100
1000
0001
0100
0020
0000
1000
0000
,  // measure 216
0100
0001
2000
0000
0000
3000
0100
0001
,  // measure 217
1000
0000
0000
0000
0001
0000
0000
0000
0200
0000
0000
0000
0300
0000
0001
0100
2000
0000
0030
0000
3101
0000
0000
0000
1000
0000
1000
0000
1000
0000
1000
0000
,  // measure 218
0010
0010
0010
0010
0100
0100
0100
0100
0001
0001
0001
0001
1000
1000
1000
1000
,  // measure 219
1000
0000
0000
1000
0000
0000
1000
0000
0000
1000
0000
0000
0001
0000
0000
0000
0010
0000
0000
0000
0100
0000
0000
0000
1000
0000
0000
0000
0100
0000
0000
0000
0010
0000
0000
0000
0001
0000
0000
0001
0000
0000
0001
0000
0000
0001
0000
0000
,  // measure 220
0100
0000
0000
0100
0000
0000
0100
0000
0000
0100
0000
0000
0010
0000
0000
0010
0000
0000
0010
0000
0000
0010
0000
0000
1000
0000
0000
1000
0000
0000
1000
0000
0000
1000
0000
0000
1000
0000
0000
0000
0010
0000
0100
0000
0010
0000
0000
0000
,  // measure 221
1000
0000
0001
1000
0100
0000
0010
0000
0001
0000
0100
0000
0010
0000
1000
0000
0100
0000
0022
0000
0000
0033
0000
0000
,  // measure 222
1000
1000
1000
1000
0010
0010
0010
0010
0100
0100
0100
0100
0020
0000
0000
0000
,  // measure 223
0000
0000
0000
0000
0000
0000
0030
0000
0000
0000
0000
0000
0001
0000
1000
0000
0001
0000
1000
0000
0000
0000
0000
0000
0010
0000
0100
0000
0010
0000
0100
0000
0000
0000
0000
0000
2002
0000
0000
0000
0000
0000
0000
0000
0000
3003
0000
0000
,  // measure 224
0100
0100
0100
0100
0010
0010
0010
0010
1000
1000
1000
1000
0002
0000
0000
0000
,  // measure 225
0000
0003
0100
0010
0002
0000
0000
0000
0000
0000
0003
0000
2000
0000
0000
3000
,  // measure 226
0010
0010
0010
0010
0100
0100
0100
0100
0001
0001
0001
0001
2000
0000
0000
0000
,  // measure 227
0000
0000
3000
0000
0001
0010
0100
1000
0001
0010
0100
0010
0002
0000
0000
0003
,  // measure 228
1000
1000
1000
1000
0010
0010
0010
0010
0100
0100
0100
0100
0020
0000
0000
0000
,  // measure 229
0000
0000
0000
0030
0000
0000
0100
0000
0000
0001
0000
0000
2000
0000
0000
0010
0000
0000
0100
0000
0000
3001
0000
0000
0110
0000
0000
0000
1100
0000
0000
0000
1010
0000
0000
0000
0101
0000
0000
0000
0000
0000
0000
0000
0000
0000
0000
0000
,  // measure 230
0100
0100
1000
0100
0010
1000
0010
0001
0100
0010
0001
0010
,  // measure 231
1000
0100
0010
0001
0001
0100
1010
0000
0100
1100
0000
0000
,  // measure 232
0001
0010
0010
1100
0000
0001
0101
0000
1000
0101
0110
1100
,  // measure 233
0101
0000
0000
0000
0000
0000
1001
0101
1010
0110
0001
1000
,  // measure 234
0100
0000
0000
0000
0010
0000
0000
0000
0001
0000
0000
0000
0010
0000
0000
0000
1000
0000
0000
0000
0010
0000
0000
0000
0100
0000
0000
0000
0100
0000
0000
0000
0010
0000
0000
0000
0220
0000
0000
0000
0000
0000
0000
0000
0000
0330
0000
0000
,  // measure 235
2202
0000
0000
3303
0000
0000
0001
0010
0001
0010
0001
0010
0100
1000
0100
1000
0100
1000
0010
0100
0010
0100
0010
0100
,  // measure 236
0001
1000
0001
1000
0001
1000
0110
0000
1100
0000
0101
0000
1001
0000
0000
0000
0000
0000
0001
0000
0100
0000
0010
0000
,  // measure 237
1000
0100
0010
0001
0100
0010
0001
0010
1000
0100
0010
0001
,  // measure 238
0100
0100
0010
1000
1000
0001
0100
0000
0000
0001
0001
0100
,  // measure 239
0010
0010
1000
0010
0000
0100
0010
0000
0000
1000
0100
0010
,  // measure 240
0100
0010
0001
0100
0010
1000
0010
1000
0100
0001
0100
0010
,  // measure 241
0001
0100
0010
1000
0010
0100
0001
1000
0100
1000
0001
0100
,  // measure 242
0010
0000
1000
0000
0001
0000
0010
0000
0001
0000
1000
0000
0110
0000
0000
0000
1100
0000
0000
0000
1001
0000
0000
0000
0000
0000
0000
0000
0110
0000
0000
0000
0000
0000
0000
0000
0001
0000
0000
0010
0000
0000
0100
0000
0000
1000
0000
0000
,  // measure 243
0010
0000
0000
0100
0000
0000
1000
0000
0000
0100
0000
0000
0011
0000
0000
0000
0000
0000
0000
0000
0000
0000
0000
0000
1001
0000
0000
0000
0000
0000
0000
0000
0000
0000
0000
0000
1000
0000
0000
0000
0100
0000
0000
0000
0010
0000
0000
0000
,  // measure 244
0001
0010
0010
1100
0000
0000
0001
0010
0100
1000
0100
0100
,  // measure 245
1010
0000
0000
0000
0000
0000
0000
0000
0001
0000
0100
0000
0011
0000
0000
0000
0110
0000
0000
0000
1000
0000
0000
0000
0100
0000
0000
0000
0000
0000
0000
0000
0000
0000
0000
0000
0010
0000
0000
0010
0000
0000
1000
0000
0000
1000
0000
0000
,  // measure 246
0010
0010
0001
0001
0110
0000
0000
0000
0001
0001
0100
0100
0010
0010
1000
1000
,  // measure 247
0101
0000
0000
0000
0000
0000
0000
0000
0000
0000
0000
0000
1000
0000
0000
1000
0000
0000
0010
0000
0000
0010
0000
0000
0100
0000
0000
0100
0000
0000
0001
0000
0000
0001
0000
0000
1010
0000
0000
0000
0001
0000
0100
0000
0001
0000
0000
0000
,  // measure 248
1000
0000
0010
0100
0010
0000
1000
0000
0001
0000
0100
0000
0010
0000
1000
0000
1000
0000
0001
0000
0100
0000
0100
0000
,  // measure 249
0010
0001
0001
0010
0100
1000
0100
0010
0010
1000
0001
0001
,  // measure 250
0100
0010
0010
1000
0100
0010
0001
1000
1000
0010
0100
0100
,  // measure 251
0001
0000
0000
0000
1000
0000
0000
0000
1000
0000
0000
0000
0010
0000
0000
0000
0100
0000
0000
0000
1000
0000
0000
0000
0011
0000
0000
0000
0000
0000
0000
0000
0000
0000
0000
0000
0000
0000
0000
0000
0000
0000
0001
0000
0000
0010
0000
0000
,  // measure 252
0100
0000
0000
1000
0000
0000
0010
0000
0000
0100
0000
0000
0011
0000
0000
0000
0000
0000
0000
0000
0000
0000
0000
0000
0100
0000
0000
0000
0010
0000
0000
0000
0010
0000
0000
0000
1000
0000
0000
0000
0001
0000
0000
0000
0001
0000
0000
0000
,  // measure 253
0100
0010
0010
0100
1000
1000
0100
0001
0001
0010
0100
0100
,  // measure 254
0020
0000
0030
0000
0000
0000
0001
0100
0100
0010
1000
1000
,  // measure 255
0001
0000
0000
0000
0010
0000
0000
0000
0010
0000
0000
0000
0100
0000
0000
0000
1000
0000
0000
0000
1000
0000
0000
0000
0001
0000
0000
0100
0000
0000
0010
0000
0000
1000
0000
0000
0001
0000
0000
0000
0100
0000
0000
0000
0010
0000
0000
0000
,  // measure 256
1000
0000
0100
0010
0001
0000
1000
0000
0010
0000
1000
0000
0100
0000
0001
0000
0001
0000
1000
0000
0010
0000
0010
0000
,  // measure 257
0100
1000
1000
0100
0010
0001
0010
0100
0100
0001
1000
1000
,  // measure 258
0010
0100
0100
0001
0010
0100
1000
0001
0001
0100
0010
0010
,  // measure 259
1000
0000
0000
0000
0001
0000
0000
0000
0001
0000
0000
0000
0100
0000
0000
0000
0010
0000
0000
0000
0001
0000
0000
0000
2200
0000
0000
0000
0000
0000
3300
0000
0000
0000
0000
0000
0000
0000
0000
0000
0000
0000
0010
0000
0000
0100
0000
0000
,  // measure 260
0010
0000
0000
1000
0000
0000
0100
0000
0000
0010
0000
0000
0101
0000
0000
0000
0000
0000
0000
0000
0000
0000
0000
0000
0100
0000
0000
0000
0010
0000
0000
0000
0010
0000
0000
0000
1000
0000
0000
0000
0001
0000
0000
0000
0001
0000
0000
0000
,  // measure 261
0100
0010
0010
0100
1000
1000
0100
0001
0001
0010
0100
0100
,  // measure 262
0020
0000
0030
0000
0000
0000
0001
0100
0100
0010
1000
1000
,  // measure 263
0001
0000
0000
0000
0010
0000
0000
0000
0010
0000
0000
0000
0100
0000
0000
0000
1000
0000
0000
0000
1000
0000
0000
0000
0101
0000
0000
0000
0000
0000
0000
0000
0000
0000
0000
0000
0001
0000
0000
0010
0000
0000
0001
0000
0000
0010
0000
0000
,  // measure 264
0100
1000
0100
1000
0022
0000
0000
0000
0033
0000
0000
0000
0000
0000
0000
0000
;
